[ create a new paste ] login | about

Link: http://codepad.org/MPgqt5lC    [ raw code | fork ]

Plain Text, pasted on Mar 8:
foobar2000 1.4.1 / Dynamic Range Meter 1.1.1
log date: 2019-03-08 10:38:38

--------------------------------------------------------------------------------
Analyzed: Tom Petty And The Heartbreakers / The Best Of Everything: The Definitive Career Spanning Hits Collection 1976-2016 (1-14)
          Tom Petty / The Best Of Everything: The Definitive Career Spanning Hits Collection 1976-2016 (15-19)
--------------------------------------------------------------------------------

DR         Peak         RMS     Duration Track
--------------------------------------------------------------------------------
DR12      -2.01 dB   -16.08 dB      4:31 02-Mary Jane's Last Dance
DR13      -0.78 dB   -16.39 dB      2:41 07-Don't Do Me Like That
DR10      -3.55 dB   -14.70 dB      3:02 08-Listen To Her Heart
DR12      -1.94 dB   -17.79 dB      2:42 09-Breakdown
DR12      -2.33 dB   -16.50 dB      4:24 10-Walls (Circus)
DR10      -3.54 dB   -15.53 dB      3:54 11-The Waiting
DR13      -1.98 dB   -17.52 dB      5:04 12-Don't Come Around Here No More
DR12      -2.90 dB   -18.49 dB      4:42 13-Southern Accents
DR13      -2.59 dB   -20.98 dB      2:26 14-Angel Dream (No.2)
DR11      -3.14 dB   -16.39 dB      3:48 15-Dreamville
DR14      -0.16 dB   -15.29 dB      3:38 16-I Should Have Known It
DR12      -1.44 dB   -15.62 dB      3:20 17-Refugee
DR12      -1.11 dB   -15.53 dB      3:34 18-American Girl
DR10      -3.34 dB   -16.62 dB      5:25 19-The Best Of Everything
DR13      -2.46 dB   -17.55 dB      4:14 01-Free Fallin'
DR11      -2.87 dB   -15.99 dB      3:22 03-You Wreck Me
DR13      -1.09 dB   -16.36 dB      2:56 04-I Won't Back Down
DR11      -2.99 dB   -16.72 dB      3:46 05-Saving Grace
DR12      -3.39 dB   -17.43 dB      4:46 06-You Don't Know How It Feels
--------------------------------------------------------------------------------

Number of tracks:  19
Official DR value: DR12

Samplerate:        44100 Hz
Channels:          2
Bits per sample:   16
Bitrate:           960 kbps
Codec:             FLAC
================================================================================

foobar2000 1.4.1 / Dynamic Range Meter 1.1.1
log date: 2019-03-08 10:38:59

--------------------------------------------------------------------------------
Analyzed: Mudcrutch / The Best Of Everything: The Definitive Career Spanning Hits Collection 1976-2016 (1-4)
          Stevie Nicks / The Best Of Everything: The Definitive Career Spanning Hits Collection 1976-2016 (5)
          Tom Petty And The Heartbreakers / The Best Of Everything: The Definitive Career Spanning Hits Collection 1976-2016 (6-15)
          Tom Petty / The Best Of Everything: The Definitive Career Spanning Hits Collection 1976-2016 (16-19)
--------------------------------------------------------------------------------

DR         Peak         RMS     Duration Track
--------------------------------------------------------------------------------
DR13      -0.12 dB   -15.32 dB      4:36 25-Scare Easy
DR14      -0.55 dB   -16.05 dB      3:19 30-Trailer
DR13       0.00 dB   -14.73 dB      5:58 36-Hungry No More
DR12      -6.23 dB   -20.21 dB      4:14 37-I Forgive It All
DR12      -2.16 dB   -16.57 dB      4:03 29-Stop Draggin' My Heart Around
DR11      -3.46 dB   -16.41 dB      4:01 21-Learning To Fly
DR12      -1.67 dB   -16.58 dB      4:24 22-Here Comes My Girl
DR11      -3.09 dB   -15.60 dB      3:30 23-The Last DJ
DR12      -2.38 dB   -15.47 dB      2:23 24-I Need To Know
DR12      -1.87 dB   -17.33 dB      3:33 26-You Got Lucky
DR12      -2.97 dB   -16.17 dB      3:42 31-Into The Great Wide Open
DR11      -3.66 dB   -18.35 dB      5:01 32-Room At The Top
DR12      -1.72 dB   -15.39 dB      4:03 34-Jammin' Me
DR12      -1.52 dB   -15.58 dB      3:33 35-Even The Losers
DR11      -3.50 dB   -17.53 dB      3:52 38-For Real
DR12      -2.94 dB   -19.48 dB      3:11 20-Wildflowers
DR12      -1.15 dB   -15.17 dB      4:22 27-Runnin' Down A Dream
DR13      -0.62 dB   -15.50 dB      3:00 28-American Dream Plan B
DR12      -5.93 dB   -21.27 dB      3:26 33-Square One
--------------------------------------------------------------------------------

Number of tracks:  19
Official DR value: DR12

Samplerate:        44100 Hz
Channels:          2
Bits per sample:   16
Bitrate:           614 kbps
Codec:             FLAC
================================================================================




Create a new paste based on this one


Comments: