[ create a new paste ] login | about

Link: http://codepad.org/MQoPMZgW    [ raw code | fork ]

Plain Text, pasted on Dec 11:
Exact Audio Copy V0.99 prebeta 4 from 23. January 2008

Отчёт EAC об извлечении, выполненном 2. августа 2011, 3:32

Various / Rock-A-Billy - CD04 - The Shot Gun Boogie

Дисковод: Optiarc DVD RW AD-7173A   Adapter: 0  ID: 1

Режим чтения                 : Достоверность
Использование точного потока : Да
Отключение кэша аудио        : Да
Использование указателей C2  : Нет

Коррекция смещения при чтении                     : 48
Способность читать области Lead-in и Lead-out     : Нет
Заполнение пропущенных сэмплов тишиной            : Да
Удаление блоков с тишиной в начале и конце        : Нет
При вычислениях CRC использовались нулевые сэмплы : Да
Интерфейс                                         : Встроенный Win32-интерфейс для Win NT/2000

Выходной формат : Внутренние WAV-операции
Формат сэмплов  : 44.100 Гц; 16 бит; стерео

TOC извлечённого CD

     Трек |   Старт  | Длительность | Начальный сектор | Конечный сектор
    ---------------------------------------------------------------------
       1  |  0:00.00 |    2:08.35   |           0      |       9634
       2  |  2:08.35 |    2:05.31   |        9635      |      19040
       3  |  4:13.66 |    2:22.18   |       19041      |      29708
       4  |  6:36.09 |    2:18.26   |       29709      |      40084
       5  |  8:54.35 |    2:19.51   |       40085      |      50560
       6  | 11:14.11 |    2:09.46   |       50561      |      60281
       7  | 13:23.57 |    2:14.57   |       60282      |      70388
       8  | 15:38.39 |    2:36.27   |       70389      |      82115
       9  | 18:14.66 |    2:23.69   |       82116      |      92909
      10  | 20:38.60 |    2:29.50   |       92910      |     104134
      11  | 23:08.35 |    2:09.34   |      104135      |     113843
      12  | 25:17.69 |    2:55.35   |      113844      |     127003
      13  | 28:13.29 |    2:03.17   |      127004      |     136245
      14  | 30:16.46 |    2:19.22   |      136246      |     146692
      15  | 32:35.68 |    1:59.49   |      146693      |     155666
      16  | 34:35.42 |    2:26.64   |      155667      |     166680
      17  | 37:02.31 |    2:00.67   |      166681      |     175747
      18  | 39:03.23 |    2:06.61   |      175748      |     185258
      19  | 41:10.09 |    2:32.37   |      185259      |     196695
      20  | 43:42.46 |    2:23.11   |      196696      |     207431

Характеристики диапазона извлечения и сообщения об ошибках

Выбранный диапазон

     Имя файла D:\КОЛЛЕКЦИЯ 12\ROCK-A-BILLY\4\Various - Rock-A-Billy - CD04 - The Shot Gun Boogie.wav

     Пиковый уровень 100.0 %
     Качество диапазона 99.9 %
     CRC копии 1A88C741
     Копирование... OK

Ошибок не произошло

AccurateRip: сводка

Трек  1  нет в базе данных
Трек  2  нет в базе данных
Трек  3  нет в базе данных
Трек  4  нет в базе данных
Трек  5  нет в базе данных
Трек  6  нет в базе данных
Трек  7  нет в базе данных
Трек  8  нет в базе данных
Трек  9  нет в базе данных
Трек 10  нет в базе данных
Трек 11  нет в базе данных
Трек 12  нет в базе данных
Трек 13  нет в базе данных
Трек 14  нет в базе данных
Трек 15  нет в базе данных
Трек 16  нет в базе данных
Трек 17  нет в базе данных
Трек 18  нет в базе данных
Трек 19  нет в базе данных
Трек 20  нет в базе данных

Ни одного трека нет в базе AccurateRip

Конец отчёта


Create a new paste based on this one


Comments: