[ create a new paste ] login | about

Link: http://codepad.org/MSgrSfAC    [ raw code | fork ]

Plain Text, pasted on Jan 12:
Exact Audio Copy V1.0 beta 4 from 7. December 2014

EAC extraction logfile from 18. March 2015, 22:13

Roger Waters / The Collection. CD4. Ca Ira CD1 (2011, 88697763332-4, 964392001)

Used drive  : ATAPI   iHAS124   B   Adapter: 1  ID: 0

Read mode               : Secure
Utilize accurate stream : Yes
Defeat audio cache      : Yes
Make use of C2 pointers : No

Read offset correction                      : 6
Overread into Lead-In and Lead-Out          : No
Fill up missing offset samples with silence : Yes
Delete leading and trailing silent blocks   : No
Null samples used in CRC calculations       : Yes
Used interface                              : Installed external ASPI interface

Used output format              : User Defined Encoder
Selected bitrate                : 128 kBit/s
Quality                         : High
Add ID3 tag                     : Yes
Command line compressor         : C:\Program Files (x86)\Exact Audio Copy\Flac\flac.exe
Additional command line options : -V -8 -T "Date=%year%" -T "Genre=%genre%" %source%

TOC of the extracted CD

     Track |   Start  |  Length  | Start sector | End sector
    ---------------------------------------------------------
        1  |  0:00.00 |  1:37.61 |         0    |     7335
        2  |  1:37.61 |  4:06.65 |      7336    |    25850
        3  |  5:44.51 |  0:54.27 |     25851    |    29927
        4  |  6:39.03 |  2:53.62 |     29928    |    42964
        5  |  9:32.65 |  2:40.32 |     42965    |    54996
        6  | 12:13.22 |  2:10.24 |     54997    |    64770
        7  | 14:23.46 |  2:37.72 |     64771    |    76617
        8  | 17:01.43 |  1:46.30 |     76618    |    84597
        9  | 18:47.73 |  4:39.31 |     84598    |   105553
       10  | 23:27.29 |  2:34.62 |    105554    |   117165
       11  | 26:02.16 |  1:43.46 |    117166    |   124936
       12  | 27:45.62 |  3:36.63 |    124937    |   141199
       13  | 31:22.50 |  1:34.54 |    141200    |   148303
       14  | 32:57.29 |  2:19.16 |    148304    |   158744
       15  | 35:16.45 |  4:17.00 |    158745    |   178019
       16  | 39:33.45 |  2:12.29 |    178020    |   187948
       17  | 41:45.74 |  2:17.47 |    187949    |   198270
       18  | 44:03.46 |  4:32.28 |    198271    |   218698
       19  | 48:35.74 |  1:37.62 |    218699    |   226035
       20  | 50:13.61 |  2:48.57 |    226036    |   238692
       21  | 53:02.43 |  1:47.22 |    238693    |   246739
       22  | 54:49.65 |  0:55.07 |    246740    |   250871
       23  | 55:44.72 |  4:50.17 |    250872    |   272638
       24  | 60:35.14 |  1:17.68 |    272639    |   278481
       25  | 61:53.07 |  6:21.18 |    278482    |   307074

Range status and errors

Selected range

     Filename G:\CD\Roger Waters - CD4. Ca Ira CD1.wav

     Peak level 96.6 %
     Extraction speed 5.9 X
     Range quality 100.0 %
     Test CRC FDFE88A6
     Copy CRC FDFE88A6
     Copy OK

No errors occurred

AccurateRip summary

Track  1  accurately ripped (confidence 42)  [30D3604C]  (AR v2)
Track  2  accurately ripped (confidence 43)  [0A7C72B6]  (AR v2)
Track  3  accurately ripped (confidence 43)  [4CCC5E9F]  (AR v2)
Track  4  accurately ripped (confidence 43)  [F6CF36B6]  (AR v2)
Track  5  accurately ripped (confidence 43)  [220738B9]  (AR v2)
Track  6  accurately ripped (confidence 43)  [2942E8C3]  (AR v2)
Track  7  accurately ripped (confidence 43)  [1253CA91]  (AR v2)
Track  8  accurately ripped (confidence 43)  [4E94C68F]  (AR v2)
Track  9  accurately ripped (confidence 43)  [EEF4674D]  (AR v2)
Track 10  accurately ripped (confidence 43)  [1C886544]  (AR v2)
Track 11  accurately ripped (confidence 43)  [134232D1]  (AR v2)
Track 12  accurately ripped (confidence 43)  [6CA15301]  (AR v2)
Track 13  accurately ripped (confidence 43)  [DB208813]  (AR v2)
Track 14  accurately ripped (confidence 43)  [41997F8D]  (AR v2)
Track 15  accurately ripped (confidence 43)  [822AC3BF]  (AR v2)
Track 16  accurately ripped (confidence 43)  [6786D8C3]  (AR v2)
Track 17  accurately ripped (confidence 43)  [0F36F529]  (AR v2)
Track 18  accurately ripped (confidence 43)  [6F188DD9]  (AR v2)
Track 19  accurately ripped (confidence 42)  [E8178DB4]  (AR v2)
Track 20  accurately ripped (confidence 43)  [F6A95F02]  (AR v2)
Track 21  accurately ripped (confidence 43)  [BC507880]  (AR v2)
Track 22  accurately ripped (confidence 43)  [1A387602]  (AR v2)
Track 23  accurately ripped (confidence 43)  [88C3F968]  (AR v2)
Track 24  accurately ripped (confidence 43)  [18FE357E]  (AR v2)
Track 25  accurately ripped (confidence 42)  [DB80A60D]  (AR v2)

All tracks accurately ripped

End of status report

---- CUETools DB Plugin V2.1.4

[CTDB TOCID: JxBE07Yeb2O7fwpgAy6Kn51ILbk-] found
Submit result: JxBE07Yeb2O7fwpgAy6Kn51ILbk- has been confirmed
Track | CTDB Status
  1   | (21/21) Accurately ripped
  2   | (21/21) Accurately ripped
  3   | (21/21) Accurately ripped
  4   | (21/21) Accurately ripped
  5   | (21/21) Accurately ripped
  6   | (21/21) Accurately ripped
  7   | (21/21) Accurately ripped
  8   | (21/21) Accurately ripped
  9   | (21/21) Accurately ripped
 10   | (21/21) Accurately ripped
 11   | (21/21) Accurately ripped
 12   | (21/21) Accurately ripped
 13   | (21/21) Accurately ripped
 14   | (21/21) Accurately ripped
 15   | (21/21) Accurately ripped
 16   | (21/21) Accurately ripped
 17   | (21/21) Accurately ripped
 18   | (21/21) Accurately ripped
 19   | (21/21) Accurately ripped
 20   | (21/21) Accurately ripped
 21   | (21/21) Accurately ripped
 22   | (21/21) Accurately ripped
 23   | (21/21) Accurately ripped
 24   | (21/21) Accurately ripped
 25   | (21/21) Accurately ripped

==== Log checksum 198562A113D18DF1EBEDD7DC9CFA19F834B8E0FC439ABB7F913FFBB529AFBFEA ====


Create a new paste based on this one


Comments: