[ create a new paste ] login | about

Link: http://codepad.org/MSpwleSl    [ raw code | fork ]

Plain Text, pasted on Apr 24:
Exact Audio Copy V1.3 from 2. September 2016

EAC extraction logfile from 20. April 2018, 13:03

Led Zeppelin / How The West Was Won CD1

Used drive  : PLEXTOR DVDR   PX-L890SA   Adapter: 1  ID: 0

Read mode               : Secure
Utilize accurate stream : Yes
Defeat audio cache      : Yes
Make use of C2 pointers : No

Read offset correction                      : 6
Overread into Lead-In and Lead-Out          : No
Fill up missing offset samples with silence : Yes
Delete leading and trailing silent blocks   : No
Null samples used in CRC calculations       : Yes
Used interface                              : Native Win32 interface for Win NT & 2000

Used output format              : User Defined Encoder
Selected bitrate                : 1024 kBit/s
Quality                         : High
Add ID3 tag                     : No
Command line compressor         : C:\Program Files (x86)\Exact Audio Copy\Flac\flac.exe
Additional command line options : -V -8 -T "Date=%year%" -T "Genre=%genre%" %source%


TOC of the extracted CD

     Track |   Start  |  Length  | Start sector | End sector 
    ---------------------------------------------------------
        1  |  0:00.00 |  0:14.53 |         0    |     1102   
        2  |  0:14.53 |  3:41.55 |      1103    |    17732   
        3  |  3:56.33 |  7:23.74 |     17733    |    51031   
        4  | 11:20.32 |  5:40.47 |     51032    |    76578   
        5  | 17:01.04 |  5:07.42 |     76579    |    99645   
        6  | 22:08.46 |  8:01.45 |     99646    |   135765   
        7  | 30:10.16 |  9:37.01 |    135766    |   179041   
        8  | 39:47.17 |  5:37.00 |    179042    |   204316   
        9  | 45:24.17 |  5:53.62 |    204317    |   230853   
       10  | 51:18.04 |  4:53.57 |    230854    |   252885   


Range status and errors

Selected range

     Filename H:\AUDIO\MUSIC\2003. Led Zeppelin - How West Was Won (Atlantic 0603497862788, EU)\CD1\Led Zeppelin - How The West Was Won CD1.wav

     Peak level 98.8 %
     Extraction speed 8.4 X
     Range quality 99.9 %
     Test CRC A2505CD4
     Copy CRC A2505CD4
     Copy OK

No errors occurred

 
AccurateRip summary
 
Track  1  accurately ripped (confidence 1)  [C0F40B85]  (AR v2)
Track  2  accurately ripped (confidence 1)  [EFA5513B]  (AR v2)
Track  3  accurately ripped (confidence 1)  [8EC26C65]  (AR v2)
Track  4  accurately ripped (confidence 1)  [17437A40]  (AR v2)
Track  5  accurately ripped (confidence 1)  [15655FED]  (AR v2)
Track  6  accurately ripped (confidence 1)  [344AC0B8]  (AR v2)
Track  7  accurately ripped (confidence 1)  [7FCFDA89]  (AR v2)
Track  8  accurately ripped (confidence 1)  [705B8698]  (AR v2)
Track  9  accurately ripped (confidence 1)  [F44DD2A9]  (AR v2)
Track 10  accurately ripped (confidence 1)  [3AC6EFED]  (AR v2)
 
All tracks accurately ripped

End of status report

==== Log checksum B1CCE47C19B9B7E0BC3E11C74C2F3B5712C138B6C04F906563D1320DA22B967D ====



Create a new paste based on this one


Comments: