[ create a new paste ] login | about

Link: http://codepad.org/MT3X3PXA    [ raw code | fork ]

Plain Text, pasted on Mar 14:
foobar2000 1.5 / Dynamic Range Meter 1.1.1
log date: 2020-03-14 18:01:26

--------------------------------------------------------------------------------
Analyzed: Alice in Chains / Total Music Immersion (1)
          Céline Dion / Total Music Immersion (2)
          Destiny's Child / Total Music Immersion (3)
          Diana Krall / Total Music Immersion (4)
          DJ Jean / Total Music Immersion (5)
          Earth Wind and Fire / Total Music Immersion (6)
          Fischer BFO / Total Music Immersion (7)
          Frankie goes to Hollywood / Total Music Immersion (8)
          Ginuwine / Total Music Immersion (9)
          Goldsmith LSO / Total Music Immersion (10)
          Groove Armada / Total Music Immersion (11)
          Guano Apes / Total Music Immersion (12)
          Herbert Grönemeyer / Total Music Immersion (13)
          James Taylor / Total Music Immersion (14)
          Kraaijenhof Spanjaard CCO Neth. Chamber Choir / Total Music Immersion (15)
          Spyro Gyra / Total Music Immersion (16)
--------------------------------------------------------------------------------

DR         Peak         RMS     Duration Track
--------------------------------------------------------------------------------
DR7       -4.68 dB   -12.40 dB      4:31 11-Man in the box
DR8       -2.33 dB   -14.83 dB      5:32 02-It's all coming back to me now
DR6       -4.65 dB   -12.80 dB      3:44 01-Independent women part I
DR13      -3.65 dB   -18.94 dB      4:43 14-The look of love
DR9       -1.44 dB   -12.34 dB      3:42 08-Love come home
DR8       -1.99 dB   -12.51 dB      3:27 12-Sing a song
DR16      -0.35 dB   -20.93 dB      3:00 16-Johann Strauss Long Live the Hungarians
DR9       -1.68 dB   -12.90 dB      4:00 09-Relax
DR7       -3.30 dB   -12.55 dB      4:14 05-2-way
DR14      -2.00 dB   -22.06 dB      1:47 15-Jerry Goldsmith theme from Papillon
DR10      -2.24 dB   -14.43 dB      6:03 06-Superstylin
DR11      -0.01 dB   -12.27 dB      3:32 10-No speech
DR9       -2.79 dB   -15.03 dB      4:04 04-Halt mich
DR9       -2.37 dB   -13.45 dB      3:29 13-Jump up behind me
DR14      -1.86 dB   -21.55 dB      4:42 03-Astor Piazzolla Adios Nonino
DR11      -2.08 dB   -14.73 dB      4:19 07-Florida Straits
--------------------------------------------------------------------------------

Number of tracks:  16
Official DR value: DR10

Samplerate:        88200 Hz
Channels:          2
Bits per sample:   24
Bitrate:           2655 kbps
Codec:             FLAC
================================================================================




Create a new paste based on this one


Comments: