[ create a new paste ] login | about

Link: http://codepad.org/MYypUeeR    [ raw code | fork ]

Plain Text, pasted on Sep 2:
foobar2000 1.3.17 / Dynamic Range Meter 1.1.1
log date: 2018-09-02 11:48:51

--------------------------------------------------------------------------------
Analyzed: ? / ?
--------------------------------------------------------------------------------

DR         Peak         RMS     Duration Track
--------------------------------------------------------------------------------
DR12      -3.81 dB   -19.02 dB      4:10 01-Don't Stop Believin'
DR13      -3.77 dB   -19.67 dB      4:26 02-Stone In Love
DR12      -4.15 dB   -19.17 dB      5:00 03-Who's Crying Now
DR11      -5.17 dB   -18.38 dB      3:39 04-Keep On Runnin'
DR11      -5.65 dB   -19.30 dB      3:48 05-Still They Ride
DR13      -4.60 dB   -18.53 dB      5:17 06-Escape
DR11      -5.44 dB   -18.48 dB      4:13 07-Lay it Down
DR12      -4.07 dB   -17.99 dB      3:21 08-Dead or Alive
DR12      -4.48 dB   -18.54 dB      5:28 09-Mother, Father
DR12      -5.36 dB   -21.86 dB      3:22 10-Open Arms
--------------------------------------------------------------------------------

Number of tracks:  10
Official DR value: DR12

Samplerate:        2822400 Hz / PCM Samplerate: 176400 Hz
Channels:          2
Bits per sample:   1
Bitrate:           5645 kbps
Codec:             DSD64
================================================================================




Create a new paste based on this one


Comments: