[ create a new paste ] login | about

Link: http://codepad.org/MZFVKPm0    [ raw code | fork ]

Plain Text, pasted on Oct 3:
[CUETools log; Date: 10/2/2018 9:40:01 PM; Version: 2.1.5]
[CTDB TOCID: LNVjh8xR.ivrtzN3FiD_E_2r5EE-] found.
Track | CTDB Status
  1   | (10/10) Accurately ripped
  2   | (10/10) Accurately ripped
  3   | (10/10) Accurately ripped
  4   | (10/10) Accurately ripped
  5   | (10/10) Accurately ripped
  6   | (10/10) Accurately ripped
  7   | (10/10) Accurately ripped
  8   | (10/10) Accurately ripped
  9   | (10/10) Accurately ripped
 10   | (10/10) Accurately ripped
 11   | (10/10) Accurately ripped
 12   | (10/10) Accurately ripped
 13   | (10/10) Accurately ripped
 14   | (10/10) Accurately ripped
 15   | (10/10) Accurately ripped
 16   | (10/10) Accurately ripped
[AccurateRip ID: 002535c5-01bdc836-dc0ecc10] found.
Track   [  CRC   |   V2   ] Status
 01     [4f494053|7f9d3338] (0+1/1) Accurately ripped
 02     [3db72655|9fefba67] (0+1/1) Accurately ripped
 03     [520685c1|629a8294] (0+1/1) Accurately ripped
 04     [b7802a55|6499fc4b] (0+1/1) Accurately ripped
 05     [106db833|c40c3923] (0+1/1) Accurately ripped
 06     [8fa8e553|22ead9eb] (0+1/1) Accurately ripped
 07     [4456e2cc|2c5e74e7] (0+1/1) Accurately ripped
 08     [eb413bad|28461244] (0+1/1) Accurately ripped
 09     [fd4da971|efe17b37] (0+1/1) Accurately ripped
 10     [772a7163|0d9063d1] (0+1/1) Accurately ripped
 11     [f8b1509a|54ae17c0] (0+1/1) Accurately ripped
 12     [1d973f7d|0fa4d22d] (0+1/1) Accurately ripped
 13     [52581c5f|a9bbac36] (0+1/1) Accurately ripped
 14     [2899e9cf|7f626171] (0+1/1) Accurately ripped
 15     [f85e3258|9a7d2f3c] (0+1/1) Accurately ripped
 16     [164a8c15|c89cb941] (0+1/1) Accurately ripped

Track Peak [ CRC32  ] [W/O NULL] [  LOG   ]
 --   98.9 [BA8764F1] [9B123475]   CRC32   
 01   98.9 [75490139] [0BF5FEFC]           
 02   98.9 [057364ED] [5C9BA84B]           
 03   98.9 [0E60A37C] [1DCAC6CF]           
 04   98.9 [4F79ACB2] [8393FAED]           
 05   98.9 [075EDBFF] [CAC76577]           
 06   98.9 [1BC161AC] [DF981B1E]           
 07   98.9 [D89FDA88] [CFFBB385]           
 08   98.9 [2822635B] [E86D61BE]           
 09   98.9 [9B7847DE] [F78A0F80]           
 10   98.9 [B361AE41] [09EE54C9]           
 11   98.9 [5B5A9A77] [157AD280]           
 12   98.9 [9AF0B6FC] [2370F491]           
 13   98.9 [66D3B437] [D05B2CB1]           
 14   98.8 [C45641A1] [2F27402C]           
 15   98.9 [4A706802] [EB7F1A17]           
 16   98.9 [2028D808] [EE86411B]           



Create a new paste based on this one


Comments: