[ create a new paste ] login | about

Link: http://codepad.org/MdYO2qhe    [ raw code | fork ]

Plain Text, pasted on Dec 17:
foobar2000 1.6 / Dynamic Range Meter 1.1.1
log date: 2020-12-18 00:29:15

--------------------------------------------------------------------------------
Analyzed: BARRY MANILOW / A CHRISTMAS GIFT OF LOVE
--------------------------------------------------------------------------------

DR         Peak         RMS     Duration Track
--------------------------------------------------------------------------------
DR11      -4.85 dB   -23.78 dB      1:46 01-Winter Wonderland
DR10      -1.01 dB   -19.48 dB      2:46 02-Happy Holiday/White Christmas
DR11      -0.34 dB   -20.16 dB      1:54 03-Santa Claus Is Coming To Town
DR12      -0.01 dB   -19.66 dB      2:26 04-(There's No Place Like) Home For The Holidays
DR11      -2.48 dB   -21.64 dB      3:21 05-I'll Be Home For Christmas
DR11      -1.18 dB   -20.38 dB      2:27 06-My Favorite Things
DR12      -2.54 dB   -20.50 dB      2:56 07-The Christmas Waltz
DR12      -0.26 dB   -20.69 dB      3:00 08-I've Got My Love To Keep Me Warm
DR10      -3.79 dB   -23.95 dB      3:45 09-River
DR11      -1.55 dB   -21.08 dB      3:48 10-What Are You Doing New Year's Eve?
DR10      -2.26 dB   -22.32 dB      2:28 11-A Gift Of Love
--------------------------------------------------------------------------------

Number of tracks:  11
Official DR value: DR11

Samplerate:        88200 Hz
Channels:          6
Bits per sample:   24
Bitrate:           6180 kbps
Codec:             FLAC
================================================================================




Create a new paste based on this one


Comments: