[ create a new paste ] login | about

Link: http://codepad.org/MgPaSNGZ    [ raw code | fork ]

Plain Text, pasted on Nov 22:
foobar2000 1.3.16 / Dynamic Range Meter 1.1.1
log date: 2017-11-22 09:49:59

--------------------------------------------------------------------------------
Analyzed: MIKE BLOOMFIELD, AL KOOPER, STEPHEN STILLS / Super Session
--------------------------------------------------------------------------------

DR         Peak         RMS     Duration Track
--------------------------------------------------------------------------------
DR13      -2.51 dB   -20.48 dB      7:02 01-ALBERT'S SHUFFLE
DR13      -2.41 dB   -20.76 dB      4:27 02-STOP
DR14      -2.50 dB   -21.70 dB      3:31 03-MAN'S TEMPTATION
DR12      -2.41 dB   -20.18 dB      9:15 04-HIS HOLY MODAL MAJESTY
DR13      -2.54 dB   -19.92 dB      7:07 05-REALLY
DR12      -2.37 dB   -18.87 dB      3:34 06-IT TAKES A LOT TO LAUGH, IT TAKES A TRAIN to CRY
DR14      -1.70 dB   -22.47 dB     11:10 07-SEASON OF THE WITCH
DR12      -2.37 dB   -18.46 dB      4:12 08-YOU DON'T LOVE ME
DR13      -2.79 dB   -22.90 dB      2:24 09-HARVEY'S TUNE
--------------------------------------------------------------------------------

Number of tracks:  9
Official DR value: DR13

Samplerate:        2822400 Hz / PCM Samplerate: 88200 Hz
Channels:          6
Bits per sample:   1
Bitrate:           16934 kbps
Codec:             DST64
================================================================================

--------------------------------------------------------------------------------
Analyzed: MIKE BLOOMFIELD, AL KOOPER, STEPHEN STILLS / Super Session
--------------------------------------------------------------------------------

DR         Peak         RMS     Duration Track
--------------------------------------------------------------------------------
DR11      -7.17 dB   -21.65 dB      6:54 01-ALBERT'S SHUFFLE
DR12      -7.82 dB   -23.23 dB      4:23 02-STOP
DR13      -7.94 dB   -24.54 dB      3:25 03-MAN'S TEMPTATION
DR12      -8.99 dB   -24.10 dB      9:13 04-HIS HOLY MODAL MAJESTY
DR11     -10.38 dB   -24.48 dB      5:27 05-REALLY
DR12      -6.92 dB   -22.78 dB      3:31 06-IT TAKES A LOT TO LAUGH, IT TAKES A TRAIN to CRY
DR12      -7.50 dB   -24.35 dB     11:08 07-SEASON OF THE WITCH
DR12      -8.46 dB   -23.03 dB      4:10 08-YOU DON'T LOVE ME
DR11      -9.82 dB   -24.19 dB      2:09 09-HARVEY'S TUNE
--------------------------------------------------------------------------------

Number of tracks:  9
Official DR value: DR12

Samplerate:        2822400 Hz / PCM Samplerate: 88200 Hz
Channels:          2
Bits per sample:   1
Bitrate:           5645 kbps
Codec:             DST64
================================================================================




Create a new paste based on this one


Comments: