[ create a new paste ] login | about

Link: http://codepad.org/MraQ6PxG    [ raw code | fork ]

Plain Text, pasted on Nov 24:
foobar2000 1.3.17 / Dynamic Range Meter 1.1.1
log date: 2018-11-23 21:38:26

--------------------------------------------------------------------------------
Analyzed: The Who / Quadrophenia (2014 Pure Audio)
--------------------------------------------------------------------------------

DR         Peak         RMS     Duration Track
--------------------------------------------------------------------------------
DR12     -11.27 dB   -32.35 dB      2:10 01-I Am The Sea
DR12      -0.11 dB   -17.91 dB      3:21 02-The Real Me
DR14      -0.18 dB   -20.77 dB      6:13 03-Quadrophenia
DR12      -0.01 dB   -20.01 dB      3:45 04-Cut My Hair
DR12      -0.01 dB   -19.01 dB      5:10 05-The Punk And The Godfather
DR13      -0.01 dB   -18.75 dB      2:38 06-I'm One
DR13      -0.01 dB   -17.10 dB      4:28 07-The Dirty Jobs
DR15      -0.10 dB   -23.17 dB      2:33 08-Helpless Dancer
DR15      -0.01 dB   -20.73 dB      3:44 09-Is It In My Head
DR14      -0.14 dB   -18.36 dB      6:16 10-I've Had Enough
DR13      -0.11 dB   -17.27 dB      4:57 11-5:15
DR13      -0.01 dB   -17.77 dB      5:01 12-Sea And Sand
DR14      -0.01 dB   -17.97 dB      5:26 13-Drowned
DR13      -0.01 dB   -18.03 dB      4:55 14-Bell Boy
DR13      -0.11 dB   -18.14 dB      8:31 15-Doctor Jimmy
DR12      -0.01 dB   -18.24 dB      6:39 16-The Rock
DR12      -0.12 dB   -16.87 dB      6:00 17-Love, Reign O'er Me
--------------------------------------------------------------------------------

Number of tracks:  17
Official DR value: DR13

Samplerate:        96000 Hz
Channels:          6
Bits per sample:   24
Bitrate:           7921 kbps
Codec:             FLAC
================================================================================




Create a new paste based on this one


Comments: