[ create a new paste ] login | about

Link: http://codepad.org/Mrxsp2pt    [ raw code | fork ]

Plain Text, pasted on Aug 1:
Exact Audio Copy V1.0 beta 3 from 29. August 2011

EAC extraction logfile from 19. October 2013, 8:34

The Beatles /  Let It Be

Used drive  : PLEXTOR DVDR   PX-891SA   Adapter: 1  ID: 0

Read mode               : Secure
Utilize accurate stream : Yes
Defeat audio cache      : Yes
Make use of C2 pointers : No

Read offset correction                      : 6
Overread into Lead-In and Lead-Out          : No
Fill up missing offset samples with silence : Yes
Delete leading and trailing silent blocks   : No
Null samples used in CRC calculations       : Yes
Used interface                              : Native Win32 interface for Win NT & 2000

Used output format              : User Defined Encoder
Selected bitrate                : 1024 kBit/s
Quality                         : High
Add ID3 tag                     : No
Command line compressor         : C:\Program Files\Exact Audio Copy\Flac\flac.exe
Additional command line options : -V -8 -T "Genre=%genre%" -T "Artist=%artist%" -T "Title=%title%" -T "Album=%albumtitle%" -T "Date=%year%" -T "Tracknumber=%tracknr%" -T "Comment=%comment%" %source%


TOC of the extracted CD

     Track |   Start  |  Length  | Start sector | End sector 
    ---------------------------------------------------------
        1  |  0:00.00 |  3:36.61 |         0    |    16260   
        2  |  3:36.61 |  3:55.00 |     16261    |    33885   
        3  |  7:31.61 |  3:48.10 |     33886    |    50995   
        4  | 11:19.71 |  2:25.44 |     50996    |    61914   
        5  | 13:45.40 |  0:50.35 |     61915    |    65699   
        6  | 14:36.00 |  4:03.02 |     65700    |    83926   
        7  | 18:39.02 |  0:40.03 |     83927    |    86929   
        8  | 19:19.05 |  3:37.42 |     86930    |   103246   
        9  | 22:56.47 |  2:53.72 |    103247    |   116293   
       10  | 25:50.44 |  3:38.14 |    116294    |   132657   
       11  | 29:28.58 |  2:32.16 |    132658    |   144073   
       12  | 32:00.74 |  3:09.29 |    144074    |   158277   
       13  | 37:42.28 | 26:00.51 |    169678    |   286728   


Range status and errors

Selected range

     Filename I:\dafnaplus\09.09.09\13  Let It Be\The Beatles -  Let It Be.wav

     Peak level 96.6 %
     Extraction speed 2.8 X
     Range quality 100.0 %
     Test CRC 0349AEF3
     Copy CRC 0349AEF3
     Copy OK

No errors occurred

 
AccurateRip summary
 
Track  1  accurately ripped (confidence 200)  [09B0B8FA]  (AR v2)
Track  2  accurately ripped (confidence 200)  [36C7AC58]  (AR v2)
Track  3  accurately ripped (confidence 200)  [1851432B]  (AR v2)
Track  4  accurately ripped (confidence 200)  [2F6BC267]  (AR v2)
Track  5  accurately ripped (confidence 200)  [938DAC43]  (AR v2)
Track  6  accurately ripped (confidence 200)  [DB4C8880]  (AR v2)
Track  7  accurately ripped (confidence 200)  [35A3D875]  (AR v2)
Track  8  accurately ripped (confidence 200)  [A82C3F28]  (AR v2)
Track  9  accurately ripped (confidence 200)  [D4E6DC47]  (AR v2)
Track 10  accurately ripped (confidence 200)  [9F5DCBD3]  (AR v2)
Track 11  accurately ripped (confidence 200)  [0814D0C5]  (AR v2)
Track 12  accurately ripped (confidence 200)  [B370B802]  (AR v2)
 
All tracks accurately ripped

End of status report

==== Log checksum 6DC8CF2DCC01F319C890B6D8062A20861CB7EB8643BD85CC2826F45953555289 ====



Create a new paste based on this one


Comments: