[ create a new paste ] login | about

Link: http://codepad.org/MuMH0SGE    [ raw code | fork ]

Plain Text, pasted on Sep 2:
foobar2000 1.1.10 / Dynamic Range Meter 1.1.1
log date: 2012-03-09 16:21:39

--------------------------------------------------------------------------------
Analyzed: Journey / Escape (1999 Remaster)
--------------------------------------------------------------------------------

DR         Peak         RMS     Duration Track
--------------------------------------------------------------------------------
DR12      -0.01 dB   -15.24 dB      4:10 01-Don't Stop Believin'
DR12      -0.10 dB   -15.91 dB      4:26 02-Stone In Love
DR12      -0.53 dB   -15.42 dB      5:01 03-Who's Crying Now
DR11      -1.54 dB   -14.66 dB      3:40 04-Keep On Runnin'
DR11      -2.24 dB   -15.59 dB      3:50 05-Still They Ride
DR13      -0.74 dB   -14.75 dB      5:17 06-Escape
DR11      -2.03 dB   -14.70 dB      4:13 07-Lay It Down
DR12      -0.30 dB   -14.20 dB      3:21 08-Dead Or Alive
DR12      -0.87 dB   -14.76 dB      5:29 09-Mother, Father
DR12      -1.86 dB   -18.14 dB      3:22 10-Open Arms
--------------------------------------------------------------------------------

Number of tracks:  10
Official DR value: DR12

Samplerate:        88200 Hz
Channels:          2
Bits per sample:   24
Bitrate:           2581 kbps
Codec:             FLAC
================================================================================




Create a new paste based on this one


Comments: