[ create a new paste ] login | about

Link: http://codepad.org/MuV8BJ2t    [ raw code | fork ]

Plain Text, pasted on Aug 30:
[CUETools log; Date: 7/24/2015 3:53:42 AM; Version: 2.1.5]
Pregap length 00:00:33.
[CTDB TOCID: tssudRH7uF6nnW32CMcuq8RN9LI-] found.
Track | CTDB Status
  1   | (6/6) Accurately ripped
  2   | (6/6) Accurately ripped
  3   | (6/6) Accurately ripped
  4   | (6/6) Accurately ripped
  5   | (6/6) Accurately ripped
  6   | (6/6) Accurately ripped
  7   | (6/6) Accurately ripped
  8   | (6/6) Accurately ripped
  9   | (6/6) Accurately ripped
 10   | (6/6) Accurately ripped
[AccurateRip ID: 000f3140-0078f246-92091f0a] found.
Track   [  CRC   |   V2   ] Status
 01     [9355286d|59a84611] (03+03/11) Accurately ripped
 02     [a4f3f800|3e81119e] (03+03/11) Accurately ripped
 03     [e8861bef|d7bb6f72] (03+03/11) Accurately ripped
 04     [6a5fa930|cf63c979] (03+03/11) Accurately ripped
 05     [16f2614f|fd6fbd9e] (03+03/11) Accurately ripped
 06     [537afd70|6ef8287c] (03+03/11) Accurately ripped
 07     [79b99fec|b00a1c65] (03+03/11) Accurately ripped
 08     [5675c0a2|dc2adfdf] (03+03/11) Accurately ripped
 09     [97aba5a5|946850d1] (03+03/11) Accurately ripped
 10     [01fd60c3|e4cf711c] (03+03/11) Accurately ripped
Offsetted by -48:
 01     [51c6beed] (02/11) Accurately ripped
 02     [48e42130] (02/11) Accurately ripped
 03     [6da802af] (02/11) Accurately ripped
 04     [efcb8e70] (02/11) Accurately ripped
 05     [a2a62daf] (02/11) Accurately ripped
 06     [532c8af0] (02/11) Accurately ripped
 07     [19d975ec] (02/11) Accurately ripped
 08     [e68c0502] (02/11) Accurately ripped
 09     [2885f9d5] (02/11) Accurately ripped
 10     [835db0b3] (02/11) Accurately ripped
Offsetted by -96:
 01     [1038556d] (00/11) No match (V2 was not tested)
 02     [ecd44a60] (00/11) No match (V2 was not tested)
 03     [f2c9e96f] (00/11) No match (V2 was not tested)
 04     [753773b0] (00/11) No match (V2 was not tested)
 05     [2e59fa0f] (00/11) No match (V2 was not tested)
 06     [52de1870] (00/11) No match (V2 was not tested)
 07     [b9f94bec] (00/11) No match (V2 was not tested)
 08     [76a24962] (00/11) No match (V2 was not tested)
 09     [b9604e05] (00/11) No match (V2 was not tested)
 10     [04be00a3] (00/11) No match (V2 was not tested)

Track Peak [ CRC32  ] [W/O NULL] [  LOG   ]
 --   77.1 [0D1D46D1] [02C506E7]   CRC32   
 01   64.3 [5F3E13F9] [35B0F889]           
 02   61.7 [F01D1C97] [B0A9B9E8]           
 03   66.0 [FCAC2E77] [51C5350C]           
 04   48.4 [31F582BE] [9AF63E8E]           
 05   59.3 [19D49B39] [AC653DD5]           
 06   64.7 [A56F168E] [68F0276D]           
 07   59.6 [79A77329] [2B502998]           
 08   77.1 [33A639F5] [06CE17EE]           
 09   53.7 [77DAA95F] [4484E988]           
 10   64.8 [E1E608B0] [7A2A2D1B]           



Create a new paste based on this one


Comments: