[ create a new paste ] login | about

Link: http://codepad.org/Mw8enoNK    [ raw code | fork ]

Plain Text, pasted on Nov 28:
foobar2000 1.3.10 / Dynamic Range Meter 1.1.1
log date: 2016-11-27 20:00:30

--------------------------------------------------------------------------------
Analyzed: Dire Straits / Brothers In Arms (2013 MFSL Hybrid SACD)
--------------------------------------------------------------------------------

DR         Peak         RMS     Duration Track
--------------------------------------------------------------------------------
DR19      -0.10 dB   -20.83 dB      5:12 01-So Far Away
DR16      -1.14 dB   -19.89 dB      8:26 02-Money For Nothing
DR12      -3.98 dB   -19.27 dB      4:12 03-Walk Of Life
DR14      -3.55 dB   -20.79 dB      6:34 04-Your Latest Trick
DR13      -5.58 dB   -21.17 dB      8:31 05-Why Worry
DR16      -0.43 dB   -19.30 dB      6:58 06-Ride Across The River
DR14      -0.35 dB   -19.68 dB      4:40 07-The Man's Too Strong
DR17      -1.01 dB   -20.18 dB      3:41 08-One World
DR14      -1.79 dB   -20.09 dB      7:01 09-Brothers In Arms
--------------------------------------------------------------------------------

Number of tracks:  9
Official DR value: DR15

Samplerate:        88200 Hz
Channels:          2
Bits per sample:   24
Bitrate:           2380 kbps
Codec:             FLAC
================================================================================




Create a new paste based on this one


Comments: