[ create a new paste ] login | about

Link: http://codepad.org/Mwsnc4rU    [ raw code | fork ]

Plain Text, pasted on Apr 30:
foobar2000 1.4.1 / Dynamic Range Meter 1.1.1
log date: 2019-04-30 11:33:31

--------------------------------------------------------------------------------
Analyzed: ? / Jazz In An R&B Groove
--------------------------------------------------------------------------------

DR         Peak         RMS     Duration Track
--------------------------------------------------------------------------------
DR12      -0.78 dB   -14.49 dB      4:53 01-What A Difference A Day Makes
DR9       -1.54 dB   -12.58 dB      6:35 02-What's Going On
DR13      -0.13 dB   -14.37 dB      5:01 03-Night Life
DR9       -2.00 dB   -13.10 dB      6:26 04-Let's Stay Together
DR12      -1.93 dB   -15.45 dB      6:50 05-Watermelon Man
DR14      -0.20 dB   -19.23 dB      5:21 06-This Bitter Earth
DR10      -0.11 dB   -12.72 dB      7:04 07-At Last
DR10      -0.01 dB   -12.20 dB      7:43 08-The Closer I Get to You
DR13      -0.09 dB   -15.47 dB      5:12 09-Everybody's Somebody's Fool
DR12      -0.08 dB   -14.37 dB      5:07 10-I Believe I Can Fly
DR14      -0.30 dB   -16.79 dB      5:07 11-Our Day Will Come
--------------------------------------------------------------------------------

Number of tracks:  11
Official DR value: DR12

Samplerate:        88200 Hz
Channels:          2
Bits per sample:   24
Bitrate:           2610 kbps
Codec:             FLAC
================================================================================




Create a new paste based on this one


Comments: