[ create a new paste ] login | about

Link: http://codepad.org/MxQEk6Hm    [ raw code | fork ]

Plain Text, pasted on Jul 2:
foobar2000 1.3 / Dynamic Range Meter 1.1.1
log date: 2015-04-13 10:46:06

--------------------------------------------------------------------------------
Analyzed: Willy Porter / Willy Porter (2005 Hybrid SACD)
--------------------------------------------------------------------------------

DR         Peak         RMS     Duration Track
--------------------------------------------------------------------------------
DR14      -2.43 dB   -22.35 dB      4:00 01-Unconditional
DR12      -0.51 dB   -20.17 dB      3:38 02-If Love were an Airplane
DR13      -0.68 dB   -19.81 dB      3:39 03-Dandelion on the Minefield
DR15      -1.21 dB   -24.20 dB      3:52 04-Breathe
DR13      -0.01 dB   -21.05 dB      5:50 05-Big Yellow Pine
DR13      -1.50 dB   -20.31 dB      3:37 06-Dirty Movie
DR13      -3.41 dB   -25.73 dB      3:41 07-Dishwater Blonde
DR12      -2.34 dB   -22.09 dB      4:01 08-All Fall Down
DR13      -0.79 dB   -23.00 dB      3:40 09-Everything but Sorry
DR13      -5.47 dB   -24.44 dB      3:53 10-How Did You Know?
DR13      -2.62 dB   -22.67 dB      3:33 11-Blue Light
--------------------------------------------------------------------------------

Number of tracks:  11
Official DR value: DR13

Samplerate:        88200 Hz
Channels:          6
Bits per sample:   24
Bitrate:           7080 kbps
Codec:             FLAC
================================================================================




Create a new paste based on this one


Comments: