[ create a new paste ] login | about

Link: http://codepad.org/MxyQCEnq    [ raw code | fork ]

Plain Text, pasted on Dec 7:
foobar2000 1.3.10 / Dynamic Range Meter 1.1.1
log date: 2016-12-07 08:10:54

--------------------------------------------------------------------------------
Analyzed: David Bowie / Blackstar  (EU LP)
--------------------------------------------------------------------------------

DR         Peak         RMS     Duration Track
--------------------------------------------------------------------------------
DR10      -1.42 dB   -14.22 dB      9:58 01-Blackstar
DR9       -0.98 dB   -12.11 dB      4:53 02-'Tis a Pity She Was a Whore
DR10      -0.30 dB   -13.12 dB      6:22 03-Lazarus
DR9       -1.65 dB   -12.45 dB      4:41 04-Sue (Or in a Season of Crime)
DR11      -0.99 dB   -13.80 dB      4:52 05-Girl Loves Me
DR10      -2.29 dB   -14.36 dB      4:45 06-Dollar Days
DR10      -1.47 dB   -13.90 dB      5:48 07-I Can't Give Everything Away
--------------------------------------------------------------------------------

Number of tracks:  7
Official DR value: DR10

Samplerate:        44100 Hz
Channels:          2
Bits per sample:   16
Bitrate:           852 kbps
Codec:             FLAC
================================================================================




Create a new paste based on this one


Comments: