[ create a new paste ] login | about

Link: http://codepad.org/N1JTDGj1    [ raw code | fork ]

Plain Text, pasted on Aug 1:
foobar2000 1.3.17 / Dynamic Range Meter 1.1.1
log date: 2018-08-01 09:26:31

--------------------------------------------------------------------------------
Analyzed: EPICA / Consign to Oblivion
--------------------------------------------------------------------------------

DR         Peak         RMS     Duration Track
--------------------------------------------------------------------------------
DR7       -0.58 dB   -10.14 dB      1:45 01-01  Hunab Ku - A new Age Dawns - prologue 
DR8       -0.49 dB    -9.95 dB      5:13 02-02  Dance of Fate
DR8       -0.77 dB   -10.38 dB      4:23 03-03  The Last Crusade - A new Age Dawns - 1
DR10      -0.83 dB   -13.01 dB      4:24 04-04  Solitary Ground
DR9       -0.85 dB   -10.60 dB      4:02 05-05  Blank Infinity
DR9       -0.51 dB   -11.03 dB      4:02 06-06  Force of the Shore
DR9       -0.83 dB   -11.03 dB      3:48 07-07  Quietus
DR8       -0.55 dB   -10.04 dB      5:56 08-08  Mother of Light - A new Age Dawns - 2
DR9       -3.27 dB   -15.36 dB      4:43 09-09  Trois Vierges
DR8       -0.92 dB   -10.38 dB      4:40 10-10  Another Me - In Lack Ech -
DR8       -0.59 dB   -10.56 dB      9:47 11-11  Consign to Oblivion - A new Age Dawns - 3
DR7       -0.57 dB    -9.66 dB      2:55 12-12  Palladium
--------------------------------------------------------------------------------

Number of tracks:  12
Official DR value: DR8

Samplerate:        88200 Hz
Channels:          2
Bits per sample:   24
Bitrate:           2657 kbps
Codec:             FLAC
================================================================================




Create a new paste based on this one


Comments: