[ create a new paste ] login | about

Link: http://codepad.org/N1pVojSE    [ raw code | fork ]

Plain Text, pasted on Apr 6:
[CUETools log; Date: 4/6/2017 8:35:58 AM; Version: 2.1.5]
[CTDB TOCID: .d5F.G2PJ.27XMdM0kOVCC1OI1U-] found.
Track | CTDB Status
  1   | (19/19) Accurately ripped
  2   | (19/19) Accurately ripped
  3   | (19/19) Accurately ripped
  4   | (19/19) Accurately ripped
  5   | (19/19) Accurately ripped
  6   | (19/19) Accurately ripped
  7   | (19/19) Accurately ripped
  8   | (19/19) Accurately ripped
  9   | (19/19) Accurately ripped
 10   | (19/19) Accurately ripped
[AccurateRip ID: 0019a94f-00cd91e3-9e10b80a] found.
Track   [  CRC   |   V2   ] Status
 01     [c3b24eef|83ac668a] (0+2/2) Accurately ripped
 02     [db1aa341|42330f43] (0+2/2) Accurately ripped
 03     [c1dec677|8cc69845] (0+2/2) Accurately ripped
 04     [2379f178|418a11d0] (0+2/2) Accurately ripped
 05     [aa82967a|86336e30] (0+2/2) Accurately ripped
 06     [bff50615|a77333bc] (0+2/2) Accurately ripped
 07     [49f56298|fc578cb8] (0+2/2) Accurately ripped
 08     [d882ee4e|ec26b5d7] (0+2/2) Accurately ripped
 09     [870360f9|0118d811] (0+2/2) Accurately ripped
 10     [e8946b6c|e8783134] (0+2/2) Accurately ripped

Track Peak [ CRC32  ] [W/O NULL] [  LOG   ]
 --   98.8 [FDF68FBF] [FA7FFD0F]           
 01   98.8 [5DAF262F] [07A676CE]   CRC32   
 02   98.8 [CAE42D69] [D6FC3BEC]   CRC32   
 03   98.8 [CBBC0831] [08381275]   CRC32   
 04   98.8 [80E65AD0] [BD4FF032]   CRC32   
 05   98.8 [39C30C69] [0A7A2C57]   CRC32   
 06   98.8 [75289BDF] [3188F536]   CRC32   
 07   98.8 [182A5845] [6241424F]   CRC32   
 08   98.8 [2A73D9DB] [50E15B9A]   CRC32   
 09   98.8 [D3376427] [1CE3A013]   CRC32   
 10   98.8 [3D73FE2D] [0509AA0A]   CRC32   



Create a new paste based on this one


Comments: