[ create a new paste ] login | about

Link: http://codepad.org/N3v9H6Px    [ raw code | fork ]

Plain Text, pasted on Sep 7:
foobar2000 1.4.6 / Dynamic Range Meter 1.1.1
log date: 2019-09-07 10:19:25

--------------------------------------------------------------------------------
Analyzed: Echo & The Bunnymen / The John Peel Sessions 1979-1983 (Remastered)
--------------------------------------------------------------------------------

DR         Peak         RMS     Duration Track
--------------------------------------------------------------------------------
DR10      -0.92 dB   -12.89 dB      2:30 01-Read It In Books (John Peel Session)
DR11      -0.93 dB   -12.93 dB      3:06 02-Stars Are Stars (John Peel Session)
DR10      -0.96 dB   -12.27 dB      2:53 03-I Bagsy Yours (John Peel Session)
DR12      -0.95 dB   -14.00 dB      4:14 04-Villiers Terrace (John Peel Session)
DR10      -0.93 dB   -13.62 dB      3:06 05-The Pictures On My Wall (John Peel Session)
DR10      -0.95 dB   -13.53 dB      2:55 06-All That Jazz (John Peel Session)
DR11      -0.96 dB   -13.82 dB      4:50 07-Over The Wall (John Peel Session)
DR11      -0.92 dB   -13.79 dB      4:28 08-All My Colours (John Peel Session)
DR11      -0.96 dB   -14.35 dB      4:26 09-That Golden Smile (John Peel Session)
DR11      -0.90 dB   -12.62 dB      4:46 10-Heaven Up Here (John Peel Session)
DR14      -0.97 dB   -16.39 dB      3:57 11-Turquoise Days (John Peel Session)
DR10      -0.99 dB   -14.14 dB      4:16 12-Taking Advantage (John Peel Session)
DR10      -0.97 dB   -14.92 dB      3:49 13-An Equation (John Peel Session)
DR11      -0.98 dB   -15.07 dB      3:11 14-No Hands (John Peel Session)
DR10      -2.14 dB   -14.92 dB      3:49 15-Silver (John Peel Session)
DR11      -1.05 dB   -15.70 dB      4:00 16-Seven Seas (John Peel Session)
DR11      -0.97 dB   -14.17 dB      3:37 17-The Killing Moon (John Peel Session)
DR12      -0.92 dB   -14.78 dB      4:15 18-Nocturnal Me (John Peel Session)
DR13      -0.90 dB   -15.53 dB      2:48 19-Watch Out Below (John Peel Session)
DR11      -0.92 dB   -14.02 dB      3:50 20-Ocean Rain (John Peel Session)
DR10      -0.86 dB   -12.40 dB      4:00 21-My Kingdom (John Peel Session)
--------------------------------------------------------------------------------

Number of tracks:  21
Official DR value: DR11

Samplerate:        44100 Hz
Channels:          2
Bits per sample:   16
Bitrate:           933 kbps
Codec:             FLAC
================================================================================




Create a new paste based on this one


Comments: