[ create a new paste ] login | about

Link: http://codepad.org/N45H7h2m    [ raw code | fork ]

Plain Text, pasted on Dec 19:
foobar2000 1.4 / Dynamic Range Meter 1.1.1
log date: 2018-12-14 22:56:40

--------------------------------------------------------------------------------
Analyzed: Robert Earl Keen Jr. / A Bigger Piece Of Sky (2004 Hybrid SACD)
--------------------------------------------------------------------------------

DR         Peak         RMS     Duration Track
--------------------------------------------------------------------------------
DR12      -1.29 dB   -14.59 dB      2:31 01-Amarillo Highway
DR12      -0.89 dB   -15.47 dB      4:00 02-Corpus Christi Bay
DR12      -0.86 dB   -16.11 dB      3:38 03-Whenever Kindness Fails
DR12      -0.99 dB   -16.13 dB      3:38 04-Blow You Away
DR13      -0.01 dB   -15.47 dB      3:46 05-Jesse With The Long Hair
DR14      -0.04 dB   -16.59 dB      4:20 06-Night Right For Love
DR14      -0.71 dB   -17.10 dB      4:35 07-Paint The Town Beige
DR14      -0.09 dB   -18.06 dB      2:57 08-Daddy Had A Buick
DR14      -0.23 dB   -16.68 dB      2:26 09-Crazy Cowboy Dream
DR12      -0.56 dB   -15.79 dB      4:46 10-Here In Arkansas
DR13      -1.18 dB   -16.68 dB      3:26 11-So I Can Take My Rest
DR16      -3.91 dB   -26.10 dB      1:15 12-Blow You Away - reprise
--------------------------------------------------------------------------------

Number of tracks:  12
Official DR value: DR13

Samplerate:        88200 Hz
Channels:          2
Bits per sample:   24
Bitrate:           2239 kbps
Codec:             FLAC
================================================================================




Create a new paste based on this one


Comments: