[ create a new paste ] login | about

Link: http://codepad.org/N4aZbkuy    [ raw code | fork ]

Plain Text, pasted on Oct 6:
foobar2000 1.6 / Dynamic Range Meter 1.1.1
log date: 2020-10-06 05:15:31

--------------------------------------------------------------------------------
Analyzed: Weather Report / Tale Spining 
--------------------------------------------------------------------------------

DR         Peak         RMS     Duration Track
--------------------------------------------------------------------------------
DR8       -7.33 dB   -24.43 dB      6:28 01-Man in the Green Shirt  
DR8       -7.14 dB   -26.03 dB      7:18 02-Lusitanos 
DR8       -6.63 dB   -24.58 dB      9:29 03-Between the Thighs  
DR9       -6.66 dB   -27.19 dB      5:17 04-Badia  
DR8       -6.99 dB   -24.08 dB      7:28 05-Freezing Fire  
DR8      -10.25 dB   -29.04 dB      6:57 06-Five Short Stories  
--------------------------------------------------------------------------------

Number of tracks:  6
Official DR value: DR8

Samplerate:        2822400 Hz / PCM Samplerate: 176400 Hz
Channels:          6
Bits per sample:   1
Bitrate:           16934 kbps
Codec:             DST64
================================================================================

--------------------------------------------------------------------------------
Analyzed: Weather Report / Tale Spining 
--------------------------------------------------------------------------------

DR         Peak         RMS     Duration Track
--------------------------------------------------------------------------------
DR12      -6.16 dB   -21.34 dB      6:28 01-Man in the Green Shirt  
DR13      -6.80 dB   -23.85 dB      7:18 02-Lusitanos 
DR14      -6.28 dB   -23.33 dB      9:29 03-Between the Thighs  
DR15      -5.71 dB   -26.17 dB      5:17 04-Badia  
DR13      -6.31 dB   -21.51 dB      7:28 05-Freezing Fire  
DR12     -11.71 dB   -27.23 dB      6:57 06-Five Short Stories  
--------------------------------------------------------------------------------

Number of tracks:  6
Official DR value: DR13

Samplerate:        2822400 Hz / PCM Samplerate: 176400 Hz
Channels:          2
Bits per sample:   1
Bitrate:           5645 kbps
Codec:             DST64
================================================================================




Create a new paste based on this one


Comments: