[ create a new paste ] login | about

Link: http://codepad.org/N6kd0zKd    [ raw code | fork ]

Plain Text, pasted on Aug 26:
EAC extraction logfile from 5. June 2007, 21:49 for CD
The Nat ''King'' Cole Trio / The Complete Capitol Recordings Of The Nat ''King'' Cole Trio - Disc 06

Used drive  : HL-DT-STDVD-ROM GDR8164B   Adapter: 0  ID: 1
Read mode   : Secure with NO C2, accurate stream, disable cache
Read offset correction : 102
Overread into Lead-In and Lead-Out : No

Used output format : C:\Programmi\Exact Audio Copy\flac.exe   (User Defined Encoder)
                     128 kBit/s
                     Additional command line options : -V -8 -T "artist=%a" -T "title=%t" -T "album=%g" -T "date=%y" -T "tracknumber=%n" -T "genre=%m" %s                  

Other options      : 
    Fill up missing offset samples with silence : Yes
    Delete leading and trailing silent blocks : No
    Installed external ASPI interface


Track  1
     Filename D:\TORRENTS\Nat King Cole - The Complete Capitol Recordings of the N.K.C. Trio (1991) [FLAC] {Mosaic MD18 - 138}\CD 6\01 - Rex Rhumba (U1).wav

     Pre-gap length  0:00:02.44

     Peak level 81.1 %
     Track quality 99.9 %
     Test CRC EACF2E2E
     Copy CRC EACF2E2E
     Copy OK

Track  2
     Filename D:\TORRENTS\Nat King Cole - The Complete Capitol Recordings of the N.K.C. Trio (1991) [FLAC] {Mosaic MD18 - 138}\CD 6\02 - How High The Moon (V1).wav

     Pre-gap length  0:00:02.70

     Peak level 93.7 %
     Track quality 100.0 %
     Test CRC 0C285279
     Copy CRC 0C285279
     Copy OK

Track  3
     Filename D:\TORRENTS\Nat King Cole - The Complete Capitol Recordings of the N.K.C. Trio (1991) [FLAC] {Mosaic MD18 - 138}\CD 6\03 - You Call It Madness (But I Call It Love) (V1).wav

     Pre-gap length  0:00:02.89

     Peak level 93.7 %
     Track quality 100.0 %
     Test CRC 28E02DCC
     Copy CRC 28E02DCC
     Copy OK

Track  4
     Filename D:\TORRENTS\Nat King Cole - The Complete Capitol Recordings of the N.K.C. Trio (1991) [FLAC] {Mosaic MD18 - 138}\CD 6\04 - Tiny's Exercise (V1).wav

     Pre-gap length  0:00:02.40

     Peak level 93.7 %
     Track quality 99.9 %
     Test CRC 9E9AA3E9
     Copy CRC 9E9AA3E9
     Copy OK

Track  5
     Filename D:\TORRENTS\Nat King Cole - The Complete Capitol Recordings of the N.K.C. Trio (1991) [FLAC] {Mosaic MD18 - 138}\CD 6\05 - After You Get What You Want, You Don't Want It (V1).wav

     Pre-gap length  0:00:02.40

     Peak level 89.7 %
     Track quality 100.0 %
     Test CRC 791F9CC7
     Copy CRC 791F9CC7
     Copy OK

Track  6
     Filename D:\TORRENTS\Nat King Cole - The Complete Capitol Recordings of the N.K.C. Trio (1991) [FLAC] {Mosaic MD18 - 138}\CD 6\06 -  Body And Soul (V1).wav

     Pre-gap length  0:00:02.60

     Peak level 92.9 %
     Track quality 100.0 %
     Test CRC 91342EDE
     Copy CRC 91342EDE
     Copy OK

Track  7
     Filename D:\TORRENTS\Nat King Cole - The Complete Capitol Recordings of the N.K.C. Trio (1991) [FLAC] {Mosaic MD18 - 138}\CD 6\07 - On The Sunny Side Of The Street (V1).wav

     Pre-gap length  0:00:02.69

     Peak level 83.1 %
     Track quality 100.0 %
     Test CRC DBC1141D
     Copy CRC DBC1141D
     Copy OK

Track  8
     Filename D:\TORRENTS\Nat King Cole - The Complete Capitol Recordings of the N.K.C. Trio (1991) [FLAC] {Mosaic MD18 - 138}\CD 6\08 - I'd Love To Make Love To You (V1).wav

     Pre-gap length  0:00:02.61

     Peak level 93.7 %
     Track quality 100.0 %
     Test CRC B3334785
     Copy CRC B3334785
     Copy OK

Track  9
     Filename D:\TORRENTS\Nat King Cole - The Complete Capitol Recordings of the N.K.C. Trio (1991) [FLAC] {Mosaic MD18 - 138}\CD 6\09 - Homeward Bound (V1).wav

     Pre-gap length  0:00:02.40

     Peak level 89.1 %
     Track quality 99.9 %
     Test CRC 0E70A4DF
     Copy CRC 0E70A4DF
     Copy OK

Track 10
     Filename D:\TORRENTS\Nat King Cole - The Complete Capitol Recordings of the N.K.C. Trio (1991) [FLAC] {Mosaic MD18 - 138}\CD 6\10 - What Is This Thing Called Love  (W1).wav

     Pre-gap length  0:00:02.66

     Peak level 93.7 %
     Track quality 100.0 %
     Test CRC 0908D4DB
     Copy CRC 0908D4DB
     Copy OK

Track 11
     Filename D:\TORRENTS\Nat King Cole - The Complete Capitol Recordings of the N.K.C. Trio (1991) [FLAC] {Mosaic MD18 - 138}\CD 6\11 - Mabel, Mabel (W1).wav

     Pre-gap length  0:00:02.80

     Peak level 92.5 %
     Track quality 100.0 %
     Test CRC EEF664E4
     Copy CRC EEF664E4
     Copy OK

Track 12
     Filename D:\TORRENTS\Nat King Cole - The Complete Capitol Recordings of the N.K.C. Trio (1991) [FLAC] {Mosaic MD18 - 138}\CD 6\12 - Swingin' The Blues (W1).wav

     Pre-gap length  0:00:02.62

     Peak level 93.7 %
     Track quality 99.9 %
     Test CRC C612A900
     Copy CRC C612A900
     Copy OK

Track 13
     Filename D:\TORRENTS\Nat King Cole - The Complete Capitol Recordings of the N.K.C. Trio (1991) [FLAC] {Mosaic MD18 - 138}\CD 6\13 - Beautiful Moons Ago (X1).wav

     Pre-gap length  0:00:02.16

     Peak level 91.4 %
     Track quality 100.0 %
     Test CRC 02033932
     Copy CRC 02033932
     Copy OK

Track 14
     Filename D:\TORRENTS\Nat King Cole - The Complete Capitol Recordings of the N.K.C. Trio (1991) [FLAC] {Mosaic MD18 - 138}\CD 6\14 - I Got Rhythm (X1).wav

     Pre-gap length  0:00:02.49

     Peak level 93.3 %
     Track quality 99.3 %
     Test CRC 4F1388E6
     Copy CRC 4F1388E6
     Copy OK

Track 15
     Filename D:\TORRENTS\Nat King Cole - The Complete Capitol Recordings of the N.K.C. Trio (1991) [FLAC] {Mosaic MD18 - 138}\CD 6\15 - Could-'Ja (X1).wav

     Pre-gap length  0:00:02.29

     Peak level 93.7 %
     Track quality 100.0 %
     Test CRC 35191052
     Copy CRC 35191052
     Copy OK

Track 16
     Filename D:\TORRENTS\Nat King Cole - The Complete Capitol Recordings of the N.K.C. Trio (1991) [FLAC] {Mosaic MD18 - 138}\CD 6\16 - One O'Clock Jump (X1).wav

     Pre-gap length  0:00:02.36

     Peak level 92.2 %
     Track quality 100.0 %
     Test CRC 25D18531
     Copy CRC 25D18531
     Copy OK

Track 17
     Filename D:\TORRENTS\Nat King Cole - The Complete Capitol Recordings of the N.K.C. Trio (1991) [FLAC] {Mosaic MD18 - 138}\CD 6\17 - How Deep Is The Ocean (X1).wav

     Pre-gap length  0:00:02.49

     Peak level 88.9 %
     Track quality 100.0 %
     Test CRC 23016A52
     Copy CRC 23016A52
     Copy OK

Track 18
     Filename D:\TORRENTS\Nat King Cole - The Complete Capitol Recordings of the N.K.C. Trio (1991) [FLAC] {Mosaic MD18 - 138}\CD 6\18 - (Get Your Kicks On) Route 66 (X1).wav

     Pre-gap length  0:00:02.30

     Peak level 91.3 %
     Track quality 100.0 %
     Test CRC B46202E1
     Copy CRC B46202E1
     Copy OK

Track 19
     Filename D:\TORRENTS\Nat King Cole - The Complete Capitol Recordings of the N.K.C. Trio (1991) [FLAC] {Mosaic MD18 - 138}\CD 6\19 - Cole Slaw (X1).wav

     Pre-gap length  0:00:02.53

     Peak level 81.3 %
     Track quality 100.0 %
     Test CRC EA5BF2B3
     Copy CRC EA5BF2B3
     Copy OK

No errors occured


End of status report




Create a new paste based on this one


Comments: