[ create a new paste ] login | about

Link: http://codepad.org/N6zq4O3t    [ raw code | fork ]

Plain Text, pasted on Apr 12:
1
2
3
4
5
6
7
8
9
10
11
12
13
14
15
16
17
18
19
20
21
22
23
24
25
26
27
28
29
30
31
32
33
34
35
36
37
38
39
40
41
42
43
44
45
46
47
48
49
50
51
52
53
54
55
56
57
58
59
60
61
62
63
64
65
66
67
68
69
70
71
72
73
74
75
76
77
78
79
80
81
82
83
84
85
86
87
88
89
90
91
92
93
94
95
96
97
98
99
100
101
102
103
104
105
106
107
108
109
110
111
112
113
114
115
116
117
118
119
120
121
122
123
124
125
126
127
128
129
130
131
132
133
134
135
136
137
138
139
140
141
142
143
144
145
146
147
148
149
150
151
152
153
154
155
156
157
158
159
160
161
162
163
164
165
166
167
168
169
170
171
172
173
174
175
176
177
178
179
180
181
182
183
184
185
186
187
188
189
190
191
192
193
194
195
196
197
198
199
200
201
202
203
204
205
206
207
208
209
210
211
212
213
214
215
216
217
218
219
220
221
222
223
224
225
226
227
228
229
230
231
232
233
234
235
236
237
238
239
240
241
242
243
244
245
246
247
248
249
250
251
252
253
254
255
256
257
258
259
260
261
262
263
264
265
266
267
268
269
270
271
272
273
274
275
276
277
278
279
280
281
282
283
284
285
286
287
288
289
290
291
292
293
294
295
296
297
298
299
300
301
302
303
304
305
306
307
308
309
310
311
312
313
314
315
316
317
318
319
320
321
322
323
324
325
326
327
328
329
330
331
332
333
334
335
336
337
338
339
340
341
342
343
344
345
346
347
348
349
350
351
352
353
354
355
356
357
358
359
360
361
362
363
364
365
366
367
368
369
370
371
372
373
374
375
376
377
378
379
380
381
382
383
384
385
386
387
388
389
390
391
392
393
394
395
396
397
398
399
400
401
402
403
404
405
406
407
408
409
410
411
412
413
414
415
416
417
418
419
Exact Audio Copy V1.0 beta 1 from 15. November 2010

EAC extraction logfile from 30. May 2011, 18:42

The Andrews Sisters / The Golden Age Of The  Andrews Sisters - Disc 3

Used drive  : ASUS    DRW-1608P   Adapter: 0  ID: 0

Read mode               : Secure
Utilize accurate stream : Yes
Defeat audio cache      : Yes
Make use of C2 pointers : No

Read offset correction                      : 48
Overread into Lead-In and Lead-Out          : No
Fill up missing offset samples with silence : Yes
Delete leading and trailing silent blocks   : No
Null samples used in CRC calculations       : Yes
Used interface                              : Installed external ASPI interface
Gap handling                                : Appended to previous track

Used output format              : User Defined Encoder
Selected bitrate                : 256 kBit/s
Quality                         : High
Add ID3 tag                     : No
Command line compressor         : D:\Program Files\Exact Audio Copy\FLAC\FLAC.EXE
Additional command line options : -8 -V -T "ARTIST=%a" -T "TITLE=%t" -T "ALBUM=%g" -T "DATE=%y" -T "TRACKNUMBER=%n" -T "TOTALTRACKS=%x" -T "GENRE=%m" -T "ALBUMARTIST=%v" -T "ALBUM ARTIST=%v" -T "COMMENT=EAC Secure Mode, Test & Copy, AccurateRip, FLAC -8" %s


TOC of the extracted CD

     Track |   Start  |  Length  | Start sector | End sector 
    ---------------------------------------------------------
        1  |  0:00.00 |  3:08.22 |         0    |    14121   
        2  |  3:08.22 |  2:33.26 |     14122    |    25622   
        3  |  5:41.48 |  2:58.26 |     25623    |    38998   
        4  |  8:39.74 |  2:42.26 |     38999    |    51174   
        5  | 11:22.25 |  2:39.24 |     51175    |    63123   
        6  | 14:01.49 |  2:33.11 |     63124    |    74609   
        7  | 16:34.60 |  2:55.61 |     74610    |    87795   
        8  | 19:30.46 |  2:54.60 |     87796    |   100905   
        9  | 22:25.31 |  2:56.32 |    100906    |   114137   
       10  | 25:21.63 |  2:44.60 |    114138    |   126497   
       11  | 28:06.48 |  2:52.55 |    126498    |   139452   
       12  | 30:59.28 |  2:43.50 |    139453    |   151727   
       13  | 33:43.03 |  3:06.12 |    151728    |   165689   
       14  | 36:49.15 |  3:00.38 |    165690    |   179227   
       15  | 39:49.53 |  3:10.08 |    179228    |   193485   
       16  | 42:59.61 |  2:34.13 |    193486    |   205048   
       17  | 45:33.74 |  2:50.02 |    205049    |   217800   
       18  | 48:24.01 |  2:37.40 |    217801    |   229615   
       19  | 51:01.41 |  3:12.45 |    229616    |   244060   
       20  | 54:14.11 |  2:24.43 |    244061    |   254903   
       21  | 56:38.54 |  2:50.47 |    254904    |   267700   
       22  | 59:29.26 |  2:49.06 |    267701    |   280381   
       23  | 62:18.32 |  2:35.55 |    280382    |   292061   
       24  | 64:54.12 |  2:28.67 |    292062    |   303228   
       25  | 67:23.04 |  2:38.11 |    303229    |   315089   


Track  1

     Filename I:\The Andrews Sisters - The Golden Age Of The Andrews Sisters (2002) [FLAC] (4 CD set)\Disc 3of4\01 - Tuxedo Junction.wav

     Pre-gap length  0:00:02.00

     Peak level 94.3 %
     Extraction speed 3.6 X
     Track quality 99.9 %
     Test CRC 2F4D6A12
     Copy CRC 2F4D6A12
     Track not present in AccurateRip database
     Copy OK

Track  2

     Filename I:\The Andrews Sisters - The Golden Age Of The Andrews Sisters (2002) [FLAC] (4 CD set)\Disc 3of4\02 - Lily Belle.wav

     Pre-gap length  0:00:02.41

     Peak level 94.3 %
     Extraction speed 4.4 X
     Track quality 100.0 %
     Test CRC 3ADB371B
     Copy CRC 3ADB371B
     Track not present in AccurateRip database
     Copy OK

Track  3

     Filename I:\The Andrews Sisters - The Golden Age Of The Andrews Sisters (2002) [FLAC] (4 CD set)\Disc 3of4\03 - Tica-Ti, Tica-Ta.wav

     Pre-gap length  0:00:02.40

     Peak level 94.3 %
     Extraction speed 4.7 X
     Track quality 100.0 %
     Test CRC C687FEC3
     Copy CRC C687FEC3
     Track not present in AccurateRip database
     Copy OK

Track  4

     Filename I:\The Andrews Sisters - The Golden Age Of The Andrews Sisters (2002) [FLAC] (4 CD set)\Disc 3of4\04 - A Zoot Suit (For My Sunday Gal).wav

     Pre-gap length  0:00:02.41

     Peak level 94.3 %
     Extraction speed 4.1 X
     Track quality 99.9 %
     Test CRC 23B35651
     Copy CRC 23B35651
     Track not present in AccurateRip database
     Copy OK

Track  5

     Filename I:\The Andrews Sisters - The Golden Age Of The Andrews Sisters (2002) [FLAC] (4 CD set)\Disc 3of4\05 - You're A Lucky Fellow, Mr. Smith.wav

     Pre-gap length  0:00:02.40

     Peak level 93.8 %
     Extraction speed 5.1 X
     Track quality 100.0 %
     Test CRC 13D084F7
     Copy CRC 13D084F7
     Track not present in AccurateRip database
     Copy OK

Track  6

     Filename I:\The Andrews Sisters - The Golden Age Of The Andrews Sisters (2002) [FLAC] (4 CD set)\Disc 3of4\06 - Stars Are The Windows Of Heaven.wav

     Pre-gap length  0:00:02.40

     Peak level 86.7 %
     Extraction speed 5.3 X
     Track quality 100.0 %
     Test CRC CCB622E7
     Copy CRC CCB622E7
     Track not present in AccurateRip database
     Copy OK

Track  7

     Filename I:\The Andrews Sisters - The Golden Age Of The Andrews Sisters (2002) [FLAC] (4 CD set)\Disc 3of4\07 - Parade Of The Wooden Soldiers.wav

     Pre-gap length  0:00:02.41

     Peak level 94.3 %
     Extraction speed 5.6 X
     Track quality 100.0 %
     Test CRC 576AEDEC
     Copy CRC 576AEDEC
     Track not present in AccurateRip database
     Copy OK

Track  8

     Filename I:\The Andrews Sisters - The Golden Age Of The Andrews Sisters (2002) [FLAC] (4 CD set)\Disc 3of4\08 - Jing-A-Ling, Jing-A-Ling.wav

     Pre-gap length  0:00:02.40

     Peak level 94.2 %
     Extraction speed 5.9 X
     Track quality 100.0 %
     Test CRC D596E421
     Copy CRC D596E421
     Track not present in AccurateRip database
     Copy OK

Track  9

     Filename I:\The Andrews Sisters - The Golden Age Of The Andrews Sisters (2002) [FLAC] (4 CD set)\Disc 3of4\09 - Rancho Pillow.wav

     Pre-gap length  0:00:02.41

     Peak level 84.0 %
     Extraction speed 6.1 X
     Track quality 100.0 %
     Test CRC A0D3A2EF
     Copy CRC A0D3A2EF
     Track not present in AccurateRip database
     Copy OK

Track 10

     Filename I:\The Andrews Sisters - The Golden Age Of The Andrews Sisters (2002) [FLAC] (4 CD set)\Disc 3of4\10 - Hohokus, N.J..wav

     Pre-gap length  0:00:02.40

     Peak level 94.3 %
     Extraction speed 6.2 X
     Track quality 100.0 %
     Test CRC D983A975
     Copy CRC D983A975
     Track not present in AccurateRip database
     Copy OK

Track 11

     Filename I:\The Andrews Sisters - The Golden Age Of The Andrews Sisters (2002) [FLAC] (4 CD set)\Disc 3of4\11 - Beatin', Bangin', 'n Scratchin' (with Danny Kaye).wav

     Pre-gap length  0:00:02.40

     Peak level 84.1 %
     Extraction speed 6.4 X
     Track quality 100.0 %
     Test CRC E15DD1BB
     Copy CRC E15DD1BB
     Track not present in AccurateRip database
     Copy OK

Track 12

     Filename I:\The Andrews Sisters - The Golden Age Of The Andrews Sisters (2002) [FLAC] (4 CD set)\Disc 3of4\12 - Jack Of All Trades.wav

     Pre-gap length  0:00:02.40

     Peak level 94.2 %
     Extraction speed 6.5 X
     Track quality 100.0 %
     Test CRC 907A5B17
     Copy CRC 907A5B17
     Track not present in AccurateRip database
     Copy OK

Track 13

     Filename I:\The Andrews Sisters - The Golden Age Of The Andrews Sisters (2002) [FLAC] (4 CD set)\Disc 3of4\13 - Atlanta, G.A..wav

     Pre-gap length  0:00:02.41

     Peak level 84.1 %
     Extraction speed 6.8 X
     Track quality 100.0 %
     Test CRC DB7E3C1B
     Copy CRC DB7E3C1B
     Track not present in AccurateRip database
     Copy OK

Track 14

     Filename I:\The Andrews Sisters - The Golden Age Of The Andrews Sisters (2002) [FLAC] (4 CD set)\Disc 3of4\14 - Coax Me A Little Bit.wav

     Pre-gap length  0:00:02.41

     Peak level 94.3 %
     Extraction speed 7.1 X
     Track quality 100.0 %
     Test CRC BDEF0FA7
     Copy CRC BDEF0FA7
     Track not present in AccurateRip database
     Copy OK

Track 15

     Filename I:\The Andrews Sisters - The Golden Age Of The Andrews Sisters (2002) [FLAC] (4 CD set)\Disc 3of4\15 - There'll Be A Jubilee.wav

     Pre-gap length  0:00:02.40

     Peak level 94.2 %
     Extraction speed 7.3 X
     Track quality 100.0 %
     Test CRC B600D2DF
     Copy CRC B600D2DF
     Track not present in AccurateRip database
     Copy OK

Track 16

     Filename I:\The Andrews Sisters - The Golden Age Of The Andrews Sisters (2002) [FLAC] (4 CD set)\Disc 3of4\16 - Put 'Em In A Box, Tie 'Em With A Ribbon (with Danny Kaye).wav

     Pre-gap length  0:00:02.40

     Peak level 93.7 %
     Extraction speed 7.2 X
     Track quality 100.0 %
     Test CRC BE8D7941
     Copy CRC BE8D7941
     Track not present in AccurateRip database
     Copy OK

Track 17

     Filename I:\The Andrews Sisters - The Golden Age Of The Andrews Sisters (2002) [FLAC] (4 CD set)\Disc 3of4\17 - Avocado.wav

     Pre-gap length  0:00:02.41

     Peak level 94.3 %
     Extraction speed 6.3 X
     Track quality 99.9 %
     Test CRC 3655F137
     Copy CRC 3655F137
     Track not present in AccurateRip database
     Copy OK

Track 18

     Filename I:\The Andrews Sisters - The Golden Age Of The Andrews Sisters (2002) [FLAC] (4 CD set)\Disc 3of4\18 - I'm Gonna Paper All My Walls With Your Love Letters.wav

     Pre-gap length  0:00:02.40

     Peak level 94.3 %
     Extraction speed 7.5 X
     Track quality 100.0 %
     Test CRC BF21AB5D
     Copy CRC BF21AB5D
     Track not present in AccurateRip database
     Copy OK

Track 19

     Filename I:\The Andrews Sisters - The Golden Age Of The Andrews Sisters (2002) [FLAC] (4 CD set)\Disc 3of4\19 - I've Just Got To Get Out Of The Habit.wav

     Pre-gap length  0:00:02.41

     Peak level 94.3 %
     Extraction speed 6.9 X
     Track quality 99.9 %
     Test CRC 961995E6
     Copy CRC 961995E6
     Track not present in AccurateRip database
     Copy OK

Track 20

     Filename I:\The Andrews Sisters - The Golden Age Of The Andrews Sisters (2002) [FLAC] (4 CD set)\Disc 3of4\20 - Yipsee-I-O (with Carmen Miranda).wav

     Pre-gap length  0:00:02.41

     Peak level 94.3 %
     Extraction speed 7.7 X
     Track quality 100.0 %
     Test CRC C2A19340
     Copy CRC C2A19340
     Track not present in AccurateRip database
     Copy OK

Track 21

     Filename I:\The Andrews Sisters - The Golden Age Of The Andrews Sisters (2002) [FLAC] (4 CD set)\Disc 3of4\21 - Underneath The Linden Tree.wav

     Pre-gap length  0:00:02.41

     Peak level 94.3 %
     Extraction speed 8.0 X
     Track quality 100.0 %
     Test CRC D18524BE
     Copy CRC D18524BE
     Track not present in AccurateRip database
     Copy OK

Track 22

     Filename I:\The Andrews Sisters - The Golden Age Of The Andrews Sisters (2002) [FLAC] (4 CD set)\Disc 3of4\22 - I Didn't Know The Gun Was Loaded.wav

     Pre-gap length  0:00:02.41

     Peak level 94.2 %
     Extraction speed 8.1 X
     Track quality 100.0 %
     Test CRC B26A2464
     Copy CRC B26A2464
     Track not present in AccurateRip database
     Copy OK

Track 23

     Filename I:\The Andrews Sisters - The Golden Age Of The Andrews Sisters (2002) [FLAC] (4 CD set)\Disc 3of4\23 - Hurry! Hurry! Hurry!.wav

     Pre-gap length  0:00:02.40

     Peak level 94.3 %
     Extraction speed 6.8 X
     Track quality 99.9 %
     Test CRC 93F21970
     Copy CRC 93F21970
     Track not present in AccurateRip database
     Copy OK

Track 24

     Filename I:\The Andrews Sisters - The Golden Age Of The Andrews Sisters (2002) [FLAC] (4 CD set)\Disc 3of4\24 - Pack Up Your Troubles (with Dick Haymes).wav

     Pre-gap length  0:00:02.41

     Peak level 94.2 %
     Extraction speed 8.1 X
     Track quality 100.0 %
     Test CRC 655D0015
     Copy CRC 655D0015
     Track not present in AccurateRip database
     Copy OK

Track 25

     Filename I:\The Andrews Sisters - The Golden Age Of The Andrews Sisters (2002) [FLAC] (4 CD set)\Disc 3of4\25 - How Many Times.wav

     Pre-gap length  0:00:02.41

     Peak level 94.2 %
     Extraction speed 8.4 X
     Track quality 100.0 %
     Test CRC 20B6AFCD
     Copy CRC 20B6AFCD
     Track not present in AccurateRip database
     Copy OK


None of the tracks are present in the AccurateRip database

No errors occurred

End of status report

==== Log checksum BCF01C95BD16C8CF60911DE095D6B00A5AFBEDB45B9CD0935A84E8D20A77394F ====



Create a new paste based on this one


Comments: