[ create a new paste ] login | about

Link: http://codepad.org/N9yWjVMY    [ raw code | fork ]

Plain Text, pasted on Aug 13:
[CUETools log; Date: 8/12/2016 4:17:25 PM; Version: 2.1.5]
[CTDB TOCID: EHQrgwdPK4ZmQHx2rCUvry979M4-] found.
Track | CTDB Status
  1   | (1/1) Accurately ripped
  2   | (1/1) Accurately ripped
  3   | (1/1) Accurately ripped
  4   | (1/1) Accurately ripped
  5   | (1/1) Accurately ripped
  6   | (1/1) Accurately ripped
  7   | (1/1) Accurately ripped
  8   | (1/1) Accurately ripped
  9   | (1/1) Accurately ripped
[AccurateRip ID: 000b4985-00572671-6b096809] found.
Track   [  CRC   |   V2   ] Status
 01     [b1fb40f7|2ff5ef5b] (0+2/2) Accurately ripped
 02     [2a966a07|d84e0e46] (0+2/2) Accurately ripped
 03     [31dbe23d|0372b854] (0+2/2) Accurately ripped
 04     [243386c5|7512533d] (0+2/2) Accurately ripped
 05     [0dcb8ffe|7f85e030] (0+2/2) Accurately ripped
 06     [09575469|03ac8732] (0+2/2) Accurately ripped
 07     [9c203248|57e9b23a] (0+2/2) Accurately ripped
 08     [511a4d3d|463240ba] (0+2/2) Accurately ripped
 09     [57d5cdf3|7d6ccab9] (0+2/2) Accurately ripped

Track Peak [ CRC32  ] [W/O NULL] [  LOG   ]
 --   99.3 [168A982B] [DD6D6F79]   CRC32   
 01   99.3 [40718005] [E34031FD]           
 02   98.5 [58A044E4] [6552C485]           
 03   99.0 [41EA8280] [BC1DB973]           
 04   97.6 [78164C38] [5F5D30BE]           
 05   95.7 [4313680A] [E96C1F6A]           
 06   99.3 [5C67FE7E] [07F16D27]           
 07   98.3 [808AD1AF] [137C4F85]           
 08   99.3 [F99345E6] [927553D6]           
 09   96.5 [EE0F63D2] [B9837FAA]           



Create a new paste based on this one


Comments: