[ create a new paste ] login | about

Link: http://codepad.org/NA41xEfk    [ raw code | fork ]

Plain Text, pasted on Apr 29:
Exact Audio Copy V1.0 beta 3 from 29. August 2011

EAC extraction logfile from 13. April 2013, 10:14

Frank Sinatra / No One Cares [MFSL UDSACD 2111] (2013)

Used drive  : Optiarc DVD RW AD-7200S   Adapter: 5  ID: 1

Read mode               : Secure
Utilize accurate stream : Yes
Defeat audio cache      : Yes
Make use of C2 pointers : No

Read offset correction                      : 48
Overread into Lead-In and Lead-Out          : No
Fill up missing offset samples with silence : Yes
Delete leading and trailing silent blocks   : No
Null samples used in CRC calculations       : Yes
Used interface                              : Installed external ASPI interface

Used output format              : User Defined Encoder
Selected bitrate                : 1024 kBit/s
Quality                         : High
Add ID3 tag                     : No
Command line compressor         : D:\Program Files (x86)\Exact Audio Copy\wavpack.exe
Additional command line options : -hlmx2 %source% %dest%


TOC of the extracted CD

     Track |   Start  |  Length  | Start sector | End sector 
    ---------------------------------------------------------
        1  |  0:00.00 |  2:45.22 |         0    |    12396   
        2  |  2:45.22 |  3:18.46 |     12397    |    27292   
        3  |  6:03.68 |  3:23.09 |     27293    |    42526   
        4  |  9:27.02 |  2:35.21 |     42527    |    54172   
        5  | 12:02.23 |  3:19.22 |     54173    |    69119   
        6  | 15:21.45 |  3:36.58 |     69120    |    85377   
        7  | 18:58.28 |  4:02.66 |     85378    |   103593   
        8  | 23:01.19 |  3:44.22 |    103594    |   120415   
        9  | 26:45.41 |  3:41.51 |    120416    |   137041   
       10  | 30:27.17 |  3:48.10 |    137042    |   154151   
       11  | 34:15.27 |  3:46.44 |    154152    |   171145   


Range status and errors

Selected range

     Filename D:\eac\Frank Sinatra 2\Frank Sinatra - No One Cares [MFSL UDSACD 2111] (2013).wav

     Peak level 97.3 %
     Extraction speed 3.8 X
     Range quality 100.0 %
     Test CRC 7C401F54
     Copy CRC 7C401F54
     Copy OK

No errors occurred

 
AccurateRip summary
 
Track  1  not present in database
Track  2  not present in database
Track  3  not present in database
Track  4  not present in database
Track  5  not present in database
Track  6  not present in database
Track  7  not present in database
Track  8  not present in database
Track  9  not present in database
Track 10  not present in database
Track 11  not present in database
 
None of the tracks are present in the AccurateRip database

End of status report

---- CUETools DB Plugin V2.1.3

[CTDB TOCID: 1qIMK3b8ZLRr81yl.In.GJEv8_I-] found, Submit result: 1qIMK3b8ZLRr81yl.In.GJEv8_I- has been confirmed
[bd7c0c84] (2/2) Accurately ripped


==== Log checksum 28B1EC098845E2225E5A8E04BAA9A97FCAB12BAD07DDBDB9F6A15E3B74DBEB71 ====



Create a new paste based on this one


Comments: