[ create a new paste ] login | about

Link: http://codepad.org/NEPBsXpM    [ raw code | fork ]

Plain Text, pasted on Mar 22:
Exact Audio Copy V1.0 beta 3 from 29. August 2011

EAC extraction logfile from 29. May 2015, 13:37

Heart / The Box Set Series (Disc 2)

Used drive  : HL-DT-STDVD+-RW GSA-H31L   Adapter: 0  ID: 2

Read mode               : Secure
Utilize accurate stream : Yes
Defeat audio cache      : Yes
Make use of C2 pointers : No

Read offset correction                      : 102
Overread into Lead-In and Lead-Out          : No
Fill up missing offset samples with silence : Yes
Delete leading and trailing silent blocks   : No
Null samples used in CRC calculations       : Yes
Used interface                              : Native Win32 interface for Win NT & 2000
Gap handling                                : Appended to previous track

Used output format              : User Defined Encoder
Selected bitrate                : 896 kBit/s
Quality                         : High
Add ID3 tag                     : No
Command line compressor         : C:\Program Files (x86)\Exact Audio Copy\Flac\flac.exe
Additional command line options : -8 -V -T "ARTIST=%artist%" -T "TITLE=%title%" -T "ALBUM=%albumtitle%" -T "DATE=%year%" -T "TRACKNUMBER=%tracknr%" -T "TOTALTRACKS=%numtracks%" -T "GENRE=%genre%" -T "ALBUMARTIST=%albumartist%" -T "ALBUM ARTIST=%albumartist%" -T "COMMENT=EAC Secure Mode, Test & Copy, AccurateRip, FLAC -8" %source%


TOC of the extracted CD

     Track |   Start  |  Length  | Start sector | End sector 
    ---------------------------------------------------------
        1  |  0:00.00 |  5:22.07 |         0    |    24156   
        2  |  5:22.07 |  5:21.68 |     24157    |    48299   
        3  | 10:44.00 |  3:41.00 |     48300    |    64874   
        4  | 14:25.00 |  5:12.36 |     64875    |    88310   
        5  | 19:37.36 |  3:18.00 |     88311    |   103160   
        6  | 22:55.36 |  1:25.00 |    103161    |   109535   
        7  | 24:20.36 |  5:55.40 |    109536    |   136200   
        8  | 30:16.01 |  3:08.35 |    136201    |   150335   
        9  | 33:24.36 |  4:24.00 |    150336    |   170135   
       10  | 37:48.36 |  3:55.00 |    170136    |   187760   
       11  | 41:43.36 |  4:41.18 |    187761    |   208853   


Track  1

     Filename F:\Torrents\Downloads\Heart - The Box Set Series (2014) [FLAC] {Epic 88843018042}\CD2\01 - Dog & Butterfly.wav

     Pre-gap length  0:00:02.00

     Peak level 96.3 %
     Extraction speed 1.8 X
     Track quality 100.0 %
     Test CRC 7C066B01
     Copy CRC 7C066B01
     Accurately ripped (confidence 1)  [B56334BF]  (AR v2)
     Copy OK

Track  2

     Filename F:\Torrents\Downloads\Heart - The Box Set Series (2014) [FLAC] {Epic 88843018042}\CD2\02 - Nada One.wav

     Peak level 96.9 %
     Extraction speed 2.1 X
     Track quality 100.0 %
     Test CRC 4764B668
     Copy CRC 4764B668
     Accurately ripped (confidence 1)  [852462EC]  (AR v2)
     Copy OK

Track  3

     Filename F:\Torrents\Downloads\Heart - The Box Set Series (2014) [FLAC] {Epic 88843018042}\CD2\03 - Bebe le Strange.wav

     Peak level 96.9 %
     Extraction speed 2.1 X
     Track quality 100.0 %
     Test CRC 1940A834
     Copy CRC 1940A834
     Accurately ripped (confidence 1)  [C01E725A]  (AR v2)
     Copy OK

Track  4

     Filename F:\Torrents\Downloads\Heart - The Box Set Series (2014) [FLAC] {Epic 88843018042}\CD2\04 - Even It Up.wav

     Peak level 95.0 %
     Extraction speed 2.4 X
     Track quality 100.0 %
     Test CRC 13689AB6
     Copy CRC 13689AB6
     Accurately ripped (confidence 1)  [66255413]  (AR v2)
     Copy OK

Track  5

     Filename F:\Torrents\Downloads\Heart - The Box Set Series (2014) [FLAC] {Epic 88843018042}\CD2\05 - Sweet Darlin'.wav

     Peak level 96.0 %
     Extraction speed 2.3 X
     Track quality 100.0 %
     Test CRC 61C7C059
     Copy CRC 61C7C059
     Accurately ripped (confidence 1)  [15276309]  (AR v2)
     Copy OK

Track  6

     Filename F:\Torrents\Downloads\Heart - The Box Set Series (2014) [FLAC] {Epic 88843018042}\CD2\06 - Silver Wheels.wav

     Peak level 98.1 %
     Extraction speed 1.4 X
     Track quality 99.8 %
     Test CRC 085ECC6F
     Copy CRC 085ECC6F
     Accurately ripped (confidence 1)  [3D74D973]  (AR v2)
     Copy OK

Track  7

     Filename F:\Torrents\Downloads\Heart - The Box Set Series (2014) [FLAC] {Epic 88843018042}\CD2\07 - Rockin' Heaven Down.wav

     Peak level 97.6 %
     Extraction speed 2.4 X
     Track quality 99.9 %
     Test CRC 72E72F7E
     Copy CRC 72E72F7E
     Accurately ripped (confidence 1)  [614DF473]  (AR v2)
     Copy OK

Track  8

     Filename F:\Torrents\Downloads\Heart - The Box Set Series (2014) [FLAC] {Epic 88843018042}\CD2\08 - This Man Is Mine.wav

     Peak level 95.4 %
     Extraction speed 2.5 X
     Track quality 100.0 %
     Test CRC 77616C61
     Copy CRC 77616C61
     Accurately ripped (confidence 1)  [F34B71CD]  (AR v2)
     Copy OK

Track  9

     Filename F:\Torrents\Downloads\Heart - The Box Set Series (2014) [FLAC] {Epic 88843018042}\CD2\09 - City's Burning.wav

     Peak level 95.4 %
     Extraction speed 2.8 X
     Track quality 100.0 %
     Test CRC 686562C2
     Copy CRC 686562C2
     Accurately ripped (confidence 1)  [0FB9E4F2]  (AR v2)
     Copy OK

Track 10

     Filename F:\Torrents\Downloads\Heart - The Box Set Series (2014) [FLAC] {Epic 88843018042}\CD2\10 - How Can I Refuse.wav

     Peak level 95.0 %
     Extraction speed 2.8 X
     Track quality 100.0 %
     Test CRC EA05C32C
     Copy CRC EA05C32C
     Accurately ripped (confidence 1)  [340C8E02]  (AR v2)
     Copy OK

Track 11

     Filename F:\Torrents\Downloads\Heart - The Box Set Series (2014) [FLAC] {Epic 88843018042}\CD2\11 - Allies.wav

     Peak level 96.5 %
     Extraction speed 2.9 X
     Track quality 100.0 %
     Test CRC 99A56F25
     Copy CRC 99A56F25
     Accurately ripped (confidence 1)  [CE75F250]  (AR v2)
     Copy OK


All tracks accurately ripped

No errors occurred

End of status report

---- CUETools DB Plugin V2.1.3

[CTDB TOCID: 7OPX9b._SG1.o.GT_tRfYZuI6iw-] disk not present in database, Submit result: 7OPX9b._SG1.o.GT_tRfYZuI6iw- has been uploaded


==== Log checksum A26554865B6480797F3D6F9ADBDFA675A80AA660CA7EABAA2FBE3AB6812AE584 ====



Create a new paste based on this one


Comments: