[ create a new paste ] login | about

Link: http://codepad.org/NFDWpzkr    [ raw code | fork ]

Plain Text, pasted on Oct 16:
STEREO
::::::

foobar2000 1.6 / Dynamic Range Meter 1.1.1
log date: 2020-10-16 01:54:01

--------------------------------------------------------------------------------
Analyzed: Rick Wakeman / The Six Wives Of Henry VIII
--------------------------------------------------------------------------------

DR         Peak         RMS     Duration Track
--------------------------------------------------------------------------------
DR10      -0.30 dB   -13.85 dB      3:46 01-Catherine of Aragon
DR10      -0.30 dB   -12.38 dB      7:56 02-Anne of Cleves
DR10      -0.30 dB   -13.36 dB      6:35 03-Catherine Howard
DR10      -0.38 dB   -15.96 dB      4:48 04-Jane Seymour
DR12      -0.36 dB   -16.55 dB      6:38 05-Anne Boleyn 'The Day Thou Gavest Lord Hath Ended'
DR10      -0.33 dB   -13.54 dB      7:06 06-Catherine Parr
--------------------------------------------------------------------------------

Number of tracks:  6
Official DR value: DR10

Samplerate:        96000 Hz
Channels:          2
Bits per sample:   24
Bitrate:           2957 kbps
Codec:             FLAC
================================================================================



QUAD
::::

foobar2000 1.6 / Dynamic Range Meter 1.1.1
log date: 2020-10-16 01:53:52

--------------------------------------------------------------------------------
Analyzed: Rick Wakeman / The Six Wives Of Henry VIII (Quad Mix)
--------------------------------------------------------------------------------

DR         Peak         RMS     Duration Track
--------------------------------------------------------------------------------
DR9       -0.50 dB   -12.83 dB      3:46 01-Catherine of Aragon
DR9       -0.50 dB   -10.90 dB      7:56 02-Anne of Cleves
DR10      -0.50 dB   -14.06 dB      6:35 03-Catherine Howard
DR8       -0.50 dB   -12.74 dB      4:48 04-Jane Seymour
DR10      -0.50 dB   -14.34 dB      6:38 05-Anne Boleyn 'The Day Thou Gavest Lord Hath Ended'
DR9       -0.50 dB   -11.76 dB      7:06 06-Catherine Parr
--------------------------------------------------------------------------------

Number of tracks:  6
Official DR value: DR9

Samplerate:        96000 Hz
Channels:          4
Bits per sample:   24
Bitrate:           5698 kbps
Codec:             FLAC
================================================================================




Create a new paste based on this one


Comments: