[ create a new paste ] login | about

Link: http://codepad.org/NIoTpc1m    [ raw code | fork ]

Plain Text, pasted on Mar 24:
foobar2000 1.6.4 / Dynamic Range Meter 1.1.1
log date: 2021-02-25 17:35:03

--------------------------------------------------------------------------------
Analyzed: Alice Cooper / Detroit Stories
--------------------------------------------------------------------------------

DR         Peak         RMS     Duration Track
--------------------------------------------------------------------------------
DR5       -0.01 dB    -6.36 dB      4:43 01-Rock 'n' Roll
DR6       -0.01 dB    -6.32 dB      2:40 02-Go Man Go
DR5       -0.01 dB    -6.19 dB      3:39 03-Our Love Will Change the World
DR6       -0.01 dB    -6.37 dB      3:05 04-Social Debris
DR5       -0.01 dB    -6.57 dB      3:29 05-$1000 High Heel Shoes
DR5       -0.01 dB    -5.81 dB      3:15 06-Hail Mary
DR4       -0.01 dB    -5.40 dB      3:20 07-Detroit City 2021
DR5       -0.01 dB    -6.55 dB      3:52 08-Drunk and in Love
DR5       -0.31 dB    -6.32 dB      2:57 09-Independence Dave
DR6       -0.01 dB    -6.99 dB      2:34 10-I Hate You
DR5       -0.01 dB    -7.37 dB      3:20 11-Wonderful World
DR5       -0.01 dB    -5.90 dB      4:47 12-Sister Anne
DR5       -0.01 dB    -6.33 dB      3:36 13-Hanging on by a Thread (Don't Give Up)
DR5       -0.01 dB    -5.72 dB      2:09 14-Shut up and Rock
DR5       -0.01 dB    -6.64 dB      2:52 15-East Side Story
--------------------------------------------------------------------------------

Number of tracks:  15
Official DR value: DR5

Samplerate:        48000 Hz
Channels:          2
Bits per sample:   24
Bitrate:           1861 kbps
Codec:             FLAC
================================================================================


Create a new paste based on this one


Comments: