[ create a new paste ] login | about

Link: http://codepad.org/NPQRHEDB    [ raw code | fork ]

Plain Text, pasted on May 8:
foobar2000 1.4.1 / Dynamic Range Meter 1.1.1
log date: 2019-05-07 23:16:23

--------------------------------------------------------------------------------
Analyzed: MILES DAVIS / JAZZ AT THE PLAZA
--------------------------------------------------------------------------------

DR         Peak         RMS     Duration Track
--------------------------------------------------------------------------------
DR15      -0.01 dB   -19.28 dB      8:34 01-If I Were A Bell
DR15      -3.29 dB   -21.12 dB     10:39 02-Oleo
DR16      -2.20 dB   -23.75 dB     10:19 03-My Funny Valentine
DR14      -2.30 dB   -20.57 dB     10:57 04-Straight, No Chaser
--------------------------------------------------------------------------------

Number of tracks:  4
Official DR value: DR15

Samplerate:        88200 Hz
Channels:          2
Bits per sample:   24
Bitrate:           2835 kbps
Codec:             FLAC
================================================================================




Create a new paste based on this one


Comments: