[ create a new paste ] login | about

Link: http://codepad.org/NRwJ4Mda    [ raw code | fork ]

Plain Text, pasted on Dec 24:
foobar2000 1.4 / Dynamic Range Meter 1.1.1
log date: 2018-12-14 23:15:18

--------------------------------------------------------------------------------
Analyzed: Simon And Garfunkel / Parsley, Sage, Rosemary And Thyme (2018 MFSL Hybrid SACD)
--------------------------------------------------------------------------------

DR         Peak         RMS     Duration Track
--------------------------------------------------------------------------------
DR9       -2.16 dB   -14.37 dB      3:13 01-Scarborough Fair/Canticle
DR11      -0.38 dB   -13.64 dB      2:46 02-Patterns
DR9       -2.64 dB   -15.30 dB      2:16 03-Cloudy
DR10      -1.67 dB   -14.48 dB      2:33 04-Homeward Bound
DR10      -1.43 dB   -13.57 dB      2:47 05-The Big Bright Green Pleasure Machine
DR9       -1.96 dB   -13.39 dB      1:48 06-The 59th Street Bridge Song (Feelin' Groovy)
DR9       -1.81 dB   -13.98 dB      2:42 07-The Dangling Conversation
DR9       -1.98 dB   -13.90 dB      2:15 08-Flowers Never Bend With The Rainfall
DR10      -1.47 dB   -13.17 dB      2:18 09-A Simple Desultory Philippic (Or How I Was Robert McNamara'd Into Submission)
DR9       -2.15 dB   -16.38 dB      2:09 10-For Emily, Whenever I May Find Her
DR9       -1.40 dB   -13.43 dB      1:58 11-A Poem On The Underground Wall
DR10      -3.54 dB   -17.14 dB      2:02 12-7 O'Clock News/Silent Night
--------------------------------------------------------------------------------

Number of tracks:  12
Official DR value: DR9

Samplerate:        88200 Hz
Channels:          2
Bits per sample:   24
Bitrate:           2762 kbps
Codec:             FLAC
================================================================================




Create a new paste based on this one


Comments: