[ create a new paste ] login | about

Link: http://codepad.org/NZxqPHFW    [ raw code | fork ]

Plain Text, pasted on Dec 11:
Exact Audio Copy V0.99 prebeta 4 from 23. January 2008

Отчёт EAC об извлечении, выполненном 2. августа 2011, 2:50

Misc / Rock-A-Billy_Blue Moon of Kentucky

Дисковод: Optiarc DVD RW AD-7173A   Adapter: 0  ID: 1

Режим чтения                 : Достоверность
Использование точного потока : Да
Отключение кэша аудио        : Да
Использование указателей C2  : Нет

Коррекция смещения при чтении                     : 48
Способность читать области Lead-in и Lead-out     : Нет
Заполнение пропущенных сэмплов тишиной            : Да
Удаление блоков с тишиной в начале и конце        : Нет
При вычислениях CRC использовались нулевые сэмплы : Да
Интерфейс                                         : Встроенный Win32-интерфейс для Win NT/2000

Выходной формат : Внутренние WAV-операции
Формат сэмплов  : 44.100 Гц; 16 бит; стерео

TOC извлечённого CD

     Трек |   Старт  | Длительность | Начальный сектор | Конечный сектор
    ---------------------------------------------------------------------
       1  |  0:00.00 |    2:22.66   |           0      |      10715
       2  |  2:22.66 |    2:12.20   |       10716      |      20635
       3  |  4:35.11 |    2:13.15   |       20636      |      30625
       4  |  6:48.26 |    2:04.03   |       30626      |      39928
       5  |  8:52.29 |    2:13.29   |       39929      |      49932
       6  | 11:05.58 |    2:33.51   |       49933      |      61458
       7  | 13:39.34 |    2:20.15   |       61459      |      71973
       8  | 15:59.49 |    1:56.54   |       71974      |      80727
       9  | 17:56.28 |    1:52.64   |       80728      |      89191
      10  | 19:49.17 |    1:54.31   |       89192      |      97772
      11  | 21:43.48 |    2:15.45   |       97773      |     107942
      12  | 23:59.18 |    2:08.14   |      107943      |     117556
      13  | 26:07.32 |    2:53.41   |      117557      |     130572
      14  | 29:00.73 |    2:09.13   |      130573      |     140260
      15  | 31:10.11 |    1:42.24   |      140261      |     147934
      16  | 32:52.35 |    2:51.64   |      147935      |     160823
      17  | 35:44.24 |    2:08.12   |      160824      |     170435
      18  | 37:52.36 |    1:56.23   |      170436      |     179158
      19  | 39:48.59 |    1:53.72   |      179159      |     187705
      20  | 41:42.56 |    2:23.62   |      187706      |     198492

Характеристики диапазона извлечения и сообщения об ошибках

Выбранный диапазон

     Имя файла D:\КОЛЛЕКЦИЯ 12\ROCK-A-BILLY\2\Misc - Rock-A-Billy_Blue Moon of Kentucky.wav

     Пиковый уровень 100.0 %
     Качество диапазона 99.9 %
     CRC копии C6E3D525
     Копирование... OK

Ошибок не произошло

AccurateRip: сводка

Трек  1  нет в базе данных
Трек  2  нет в базе данных
Трек  3  нет в базе данных
Трек  4  нет в базе данных
Трек  5  нет в базе данных
Трек  6  нет в базе данных
Трек  7  нет в базе данных
Трек  8  нет в базе данных
Трек  9  нет в базе данных
Трек 10  нет в базе данных
Трек 11  нет в базе данных
Трек 12  нет в базе данных
Трек 13  нет в базе данных
Трек 14  нет в базе данных
Трек 15  нет в базе данных
Трек 16  нет в базе данных
Трек 17  нет в базе данных
Трек 18  нет в базе данных
Трек 19  нет в базе данных
Трек 20  нет в базе данных

Ни одного трека нет в базе AccurateRip

Конец отчёта


Create a new paste based on this one


Comments: