[ create a new paste ] login | about

Link: http://codepad.org/NedOppym    [ raw code | fork ]

Plain Text, pasted on Aug 29:
foobar2000 1.3.17 / Dynamic Range Meter 1.1.1
log date: 2018-08-29 10:13:39

--------------------------------------------------------------------------------
Analyzed: Weather Report / Night Passage
--------------------------------------------------------------------------------

DR         Peak         RMS     Duration Track
--------------------------------------------------------------------------------
DR11      -0.37 dB   -14.32 dB      6:33 01-Night Passage
DR13      -1.50 dB   -19.93 dB      6:27 02-Dream Clock
DR12      -1.60 dB   -16.99 dB      5:12 03-Port Of Entry
DR11      -4.22 dB   -20.48 dB      3:48 04-Forlorn
DR12      -1.72 dB   -16.87 dB      3:02 05-Rockin In Rhythm
DR13      -0.07 dB   -16.82 dB      6:18 06-Fast City
DR13      -0.01 dB   -17.99 dB      5:53 07-Three Views Of A Secret
DR13      -0.27 dB   -17.88 dB     10:57 08-Madagascar
--------------------------------------------------------------------------------

Number of tracks:  8
Official DR value: DR12

Samplerate:        88200 Hz
Channels:          2
Bits per sample:   24
Bitrate:           2539 kbps
Codec:             FLAC
================================================================================




Create a new paste based on this one


Comments: