[ create a new paste ] login | about

Link: http://codepad.org/NeugMYYD    [ raw code | fork ]

Plain Text, pasted on Nov 27:
foobar2000 1.3.16 / Dynamic Range Meter 1.1.1
log date: 2017-11-27 08:01:15

--------------------------------------------------------------------------------
Analyzed: Frank Sinatra / Only The Lonely (MFSL)
--------------------------------------------------------------------------------

DR         Peak         RMS     Duration Track
--------------------------------------------------------------------------------
DR13      -0.19 dB   -16.92 dB      4:09 01-Only The Lonely
DR13      -0.33 dB   -17.48 dB      3:44 02-Angel Eyes
DR13      -0.43 dB   -18.12 dB      5:10 03-What's New
DR12      -0.39 dB   -16.29 dB      4:15 04-It's A Lonesome Old Town
DR12      -0.44 dB   -17.05 dB      4:49 05-Willow Weep For Me
DR13      -0.31 dB   -18.03 dB      5:48 06-Good-Bye
DR12      -0.36 dB   -16.71 dB      4:44 07-Blues In The Night
DR12      -0.31 dB   -17.29 dB      4:00 08-Guess I'll Hang My Tears Out To Dry
DR11      -0.22 dB   -15.53 dB      3:16 09-Ebb Tide
DR11      -0.24 dB   -15.59 dB      4:45 10-Spring Is Here
DR13      -0.20 dB   -17.72 dB      5:12 11-Gone With The Wind
DR16      -0.21 dB   -21.90 dB      4:27 12-One For My Baby
--------------------------------------------------------------------------------

Number of tracks:  12
Official DR value: DR13

Samplerate:        44100 Hz
Channels:          2
Bits per sample:   16
Bitrate:           374 kbps
Codec:             FLAC
================================================================================




Create a new paste based on this one


Comments: