[ create a new paste ] login | about

Link: http://codepad.org/NftWQiN2    [ raw code | fork ]

Plain Text, pasted on Dec 15:
foobar2000 1.4.1 / Dynamic Range Meter 1.1.1
log date: 2018-12-14 15:57:04

--------------------------------------------------------------------------------
Analyzed: The Who / Quadrophenia DVD
--------------------------------------------------------------------------------

DR         Peak         RMS     Duration Track
--------------------------------------------------------------------------------
DR11     -11.34 dB   -27.40 dB      2:10 01-I Am The Sea
DR10      -0.10 dB   -12.24 dB      3:21 02-The Real Me
DR13      -0.11 dB   -15.99 dB      6:45 03-Quadrophenia
DR12      -0.12 dB   -13.89 dB      6:22 04-I've Had Enough
DR10      -0.10 dB   -12.79 dB      5:17 05-5.15
DR10      -0.10 dB   -12.59 dB      8:04 06-Doctor Jimmy
DR11      -0.11 dB   -13.54 dB      6:38 07-The Rock
DR10      -0.10 dB   -13.05 dB      5:57 08-Love Reign O'er Me
--------------------------------------------------------------------------------

Number of tracks:  8
Official DR value: DR11

Samplerate:        96000 Hz
Channels:          2
Bits per sample:   24
Bitrate:           2838 kbps
Codec:             FLAC
================================================================================




Create a new paste based on this one


Comments: