[ create a new paste ] login | about

Link: http://codepad.org/NhOLlFd6    [ raw code | fork ]

Plain Text, pasted on Apr 27:
foobar2000 1.3.8 / Dynamic Range Meter 1.1.1
log date: 2015-09-04 15:26:52

--------------------------------------------------------------------------------
Analyzed: The Doors / The Best of The Doors (2015 AF Hybrid SACD)
--------------------------------------------------------------------------------

DR         Peak         RMS     Duration Track
--------------------------------------------------------------------------------
DR10      -6.84 dB   -19.67 dB      6:24 01-Who Do You Love?
DR11      -4.49 dB   -20.02 dB      3:34 02-Soul Kitchen
DR11      -5.08 dB   -20.25 dB      2:17 03-Hello, I Love You
DR10      -6.21 dB   -19.65 dB      2:13 04-People Are Strange
DR15      -4.02 dB   -23.69 dB      7:17 05-Riders On The Storm
DR12      -4.56 dB   -20.16 dB      3:13 06-Touch Me
DR13      -4.72 dB   -20.33 dB      3:22 07-Love Her Madly
DR10      -5.33 dB   -18.79 dB      3:16 08-Love Me Two Times
DR11      -3.27 dB   -17.72 dB      2:18 09-Take It As It Comes
DR10      -5.13 dB   -18.25 dB      3:04 10-Moonlight Drive
DR10      -4.24 dB   -16.62 dB      7:08 11-Light My Fire
--------------------------------------------------------------------------------

Number of tracks:  11
Official DR value: DR11

Samplerate:        88200 Hz
Channels:          2
Bits per sample:   24
Bitrate:           2673 kbps
Codec:             FLAC
================================================================================




Create a new paste based on this one


Comments: