[ create a new paste ] login | about

Link: http://codepad.org/Nl9nmO0U    [ raw code | fork ]

Plain Text, pasted on Aug 7:
foobar2000 1.3.17 / Dynamic Range Meter 1.1.1
log date: 2018-08-06 13:22:34

--------------------------------------------------------------------------------
Analyzed: Rod Stewart / Camouflage
--------------------------------------------------------------------------------

DR         Peak         RMS     Duration Track
--------------------------------------------------------------------------------
DR14      -0.20 dB   -15.88 dB      5:14 01-Infatuation
DR13      -1.07 dB   -16.13 dB      4:42 02-All Right Now
DR14      -1.61 dB   -16.73 dB      4:34 03-Some Guys Have All the Luck
DR14      -1.31 dB   -18.38 dB      3:49 04-Can We Still Be Friends
DR13       0.00 dB   -16.25 dB      5:19 05-Bad For You
DR14      -0.30 dB   -16.15 dB      4:05 06-Heart Is on the Line
DR13      -0.74 dB   -16.26 dB      5:20 07-Camouflage
DR15      -3.02 dB   -20.30 dB      4:44 08-Trouble
--------------------------------------------------------------------------------

Number of tracks:  8
Official DR value: DR14

Samplerate:        44100 Hz
Channels:          2
Bits per sample:   24
Bitrate:           1486 kbps
Codec:             FLAC
================================================================================




Create a new paste based on this one


Comments: