[ create a new paste ] login | about

Link: http://codepad.org/NlWMtMZM    [ raw code | fork ]

Plain Text, pasted on Aug 23:
foobar2000 1.3.16 / Dynamic Range Meter 1.1.1
log date: 2017-08-22 17:54:57

--------------------------------------------------------------------------------
Analyzed: Cream / Goodbye
--------------------------------------------------------------------------------

DR         Peak         RMS     Duration Track
--------------------------------------------------------------------------------
DR11      -0.73 dB   -14.82 dB      9:15 01-I'M So Glad (Live)
DR11      -0.76 dB   -13.62 dB      6:21 02-Politician (Live)
DR11      -0.52 dB   -14.46 dB      5:05 03-Sitting On Top Of The World (Live)
DR11      -1.06 dB   -14.15 dB      2:48 04-Badge
DR10      -0.45 dB   -13.87 dB      3:19 05-Doing That Scrapyard Thing
DR11      -0.01 dB   -13.43 dB      3:58 06-What A Bringdown
--------------------------------------------------------------------------------

Number of tracks:  6
Official DR value: DR11

Samplerate:        88200 Hz
Channels:          2
Bits per sample:   24
Bitrate:           2863 kbps
Codec:             FLAC
================================================================================




Create a new paste based on this one


Comments: