[ create a new paste ] login | about

Link: http://codepad.org/NnY39QRi    [ raw code | fork ]

Plain Text, pasted on Mar 14:
Exact Audio Copy V1.1 from 23. June 2015

EAC extraction logfile from 25. February 2016, 19:52

Grateful Dead / Fare Thee Well 7-5-15 (CD1)

Used drive  : PIONEER BD-RW   BDR-XD04   Adapter: 1  ID: 0

Read mode               : Secure
Utilize accurate stream : Yes
Defeat audio cache      : Yes
Make use of C2 pointers : No

Read offset correction                      : 667
Overread into Lead-In and Lead-Out          : No
Fill up missing offset samples with silence : Yes
Delete leading and trailing silent blocks   : No
Null samples used in CRC calculations       : Yes
Used interface                              : Native Win32 interface for Win NT & 2000

Used output format              : User Defined Encoder
Selected bitrate                : 768 kBit/s
Quality                         : High
Add ID3 tag                     : No
Command line compressor         : C:\Program Files (x86)\Exact Audio Copy\Wavpack\wavpack.exe
Additional command line options : -hm -w "Year=%year%" -w "Genre=%genre%" %source% %dest%


TOC of the extracted CD

     Track |   Start  |  Length  | Start sector | End sector 
    ---------------------------------------------------------
        1  |  0:00.00 |  7:42.53 |         0    |    34702   
        2  |  7:42.53 |  7:36.21 |     34703    |    68923   
        3  | 15:18.74 | 15:31.60 |     68924    |   138808   
        4  | 30:50.59 |  6:12.20 |    138809    |   166728   
        5  | 37:03.04 |  8:14.21 |    166729    |   203799   
        6  | 45:17.25 | 13:48.29 |    203800    |   265928   
        7  | 59:05.54 | 12:39.01 |    265929    |   322854   


Range status and errors

Selected range

     Filename D:\_NL+_\_CD\Grateful Dead - Fare Thee Well 7-5-15 (CD1).wav

     Peak level 97.7 %
     Extraction speed 1.6 X
     Range quality 99.9 %
     Test CRC 0AF71720
     Copy CRC 0AF71720
     Copy OK

No errors occurred

 
AccurateRip summary
 
Track  1  accurately ripped (confidence 1)  [8092F834]  (AR v2)
Track  2  accurately ripped (confidence 1)  [66F22E6E]  (AR v2)
Track  3  accurately ripped (confidence 1)  [7BEB0CD7]  (AR v2)
Track  4  accurately ripped (confidence 1)  [73AEA3E3]  (AR v2)
Track  5  accurately ripped (confidence 1)  [FB7775A9]  (AR v2)
Track  6  accurately ripped (confidence 1)  [92E7F6E9]  (AR v2)
Track  7  accurately ripped (confidence 1)  [1B1F08BB]  (AR v2)
 
All tracks accurately ripped

End of status report

---- CUETools DB Plugin V2.1.6

[CTDB TOCID: BPpQOa.z62KosUcFtJ8rGmyNZmM-] found
Submit result: BPpQOa.z62KosUcFtJ8rGmyNZmM- has been confirmed
Track | CTDB Status
  1   | (30/30) Accurately ripped
  2   | (30/30) Accurately ripped
  3   | (30/30) Accurately ripped
  4   | (30/30) Accurately ripped
  5   | (29/30) Accurately ripped
  6   | (28/30) Accurately ripped
  7   | (29/30) Accurately ripped


==== Log checksum 69F30B25CB3F2F2B71260ABAABD841398BECBF652DE67E3ACCFC19BEE6CC2D86 ====



Create a new paste based on this one


Comments: