[ create a new paste ] login | about

Link: http://codepad.org/NrjhLvnp    [ raw code | fork ]

Plain Text, pasted on Oct 29:
foobar2000 1.6 / Dynamic Range Meter 1.1.1
log date: 2020-10-29 04:39:12

--------------------------------------------------------------------------------
Analyzed: Charlie Rich  / Behind Closed Doors & Every Time You Touch Me
--------------------------------------------------------------------------------

DR         Peak         RMS     Duration Track
--------------------------------------------------------------------------------
DR12      -0.32 dB   -16.80 dB      3:01 01-Behind Closed Doors 
DR11      -1.50 dB   -17.16 dB      2:56 02-If You Wouldnt Be My Lady 
DR12      -3.12 dB   -18.50 dB      2:30 03-You Never Really Wanted Me 
DR11      -2.18 dB   -16.59 dB      3:10 04-A Sunday Kind Of Woman 
DR13      -0.84 dB   -16.53 dB      4:00 05-Peace On You 
DR13      -0.03 dB   -16.80 dB      2:48 06-The Most Beautiful Girl 
DR11      -0.95 dB   -16.36 dB      2:54 07-I Take It On Home 
DR11      -1.68 dB   -15.06 dB      2:32 08-Till I Cant Take It Anymore 
DR11      -1.99 dB   -15.65 dB      3:09 09-We Love Each Other 
DR13      -2.38 dB   -18.29 dB      2:13 10-Im Not Going Hungry 
DR11      -3.22 dB   -17.95 dB      2:43 11-Nothing In The World To Do With Me
DR11      -1.50 dB   -17.11 dB      3:05 12-Every Time You Touch Me I Get High
DR12      -2.84 dB   -17.60 dB      2:56 13-All Over Me 
DR10      -1.95 dB   -16.76 dB      2:30 14-A Little Bit Here A Little Bit There
DR11      -0.98 dB   -15.96 dB      2:24 15-A Mellow Melody 
DR11      -2.48 dB   -16.56 dB      3:06 16-Since I Fell for You 
DR12      -0.01 dB   -15.34 dB      2:36 17-Pass On By 
DR10      -2.86 dB   -17.77 dB      2:54 18-Rendezvous 
DR13      -1.88 dB   -17.09 dB      2:46 19-She 
DR13      -3.18 dB   -19.40 dB      3:22 20-You and I 
DR13      -1.43 dB   -17.46 dB      3:08 21-Midnight Blues 
--------------------------------------------------------------------------------

Number of tracks:  21
Official DR value: DR12

Samplerate:        88200 Hz
Channels:          2
Bits per sample:   24
Bitrate:           2621 kbps
Codec:             FLAC
================================================================================




Create a new paste based on this one


Comments: