[ create a new paste ] login | about

Link: http://codepad.org/Nw11DGBM    [ raw code | fork ]

Plain Text, pasted on Jul 19:
foobar2000 1.3.9 / Dynamic Range Meter 1.1.1
log date: 2015-11-24 13:04:58

--------------------------------------------------------------------------------
Analyzed: Public Image Limited / Public Image: First Issue (2015 SHM-SACD)
--------------------------------------------------------------------------------

DR         Peak         RMS     Duration Track
--------------------------------------------------------------------------------
DR11      -1.48 dB   -13.89 dB      9:12 01-Theme
DR14      -7.41 dB   -23.86 dB      1:26 02-Religion I
DR13      -0.01 dB   -15.90 dB      5:54 03-Religion II
DR11      -0.34 dB   -13.10 dB      6:06 04-Annalisa
DR11      -0.80 dB   -13.07 dB      3:02 05-Public Image
DR10      -1.77 dB   -13.15 dB      3:38 06-Low Life
DR12      -1.78 dB   -15.93 dB      2:56 07-Attack
DR15      -0.97 dB   -17.04 dB      7:48 08-Fodderstompf
--------------------------------------------------------------------------------

Number of tracks:  8
Official DR value: DR12

Samplerate:        88200 Hz
Channels:          2
Bits per sample:   24
Bitrate:           2935 kbps
Codec:             FLAC
================================================================================




Create a new paste based on this one


Comments: