[ create a new paste ] login | about

Link: http://codepad.org/NzPIuZU1    [ raw code | fork ]

Plain Text, pasted on May 10:
Exact Audio Copy V1.1 from 23. June 2015

EAC extraction logfile from 19. October 2015, 14:37

Quiet Riot / Quiet Riot [Sony~Epic, 88875063652, EU]

Used drive  : PIONEER DVD-RW  DVR-220L   Adapter: 3  ID: 0

Read mode               : Secure
Utilize accurate stream : Yes
Defeat audio cache      : Yes
Make use of C2 pointers : No

Read offset correction                      : 6
Overread into Lead-In and Lead-Out          : No
Fill up missing offset samples with silence : Yes
Delete leading and trailing silent blocks   : No
Null samples used in CRC calculations       : Yes
Used interface                              : Installed external ASPI interface

Used output format              : User Defined Encoder
Selected bitrate                : 1024 kBit/s
Quality                         : High
Add ID3 tag                     : No
Command line compressor         : C:\Program Files\Exact Audio Copy\FLAC\FLAC.EXE
Additional command line options : -V -8 -T "Date=%year%" -T "Genre=%genre%" %source%


TOC of the extracted CD

     Track |   Start  |  Length  | Start sector | End sector 
    ---------------------------------------------------------
        1  |  0:00.00 |  4:39.47 |         0    |    20971   
        2  |  4:39.47 |  4:41.23 |     20972    |    42069   
        3  |  9:20.70 |  4:38.20 |     42070    |    62939   
        4  | 13:59.15 |  4:17.60 |     62940    |    82274   
        5  | 18:17.00 |  4:24.25 |     82275    |   102099   
        6  | 22:41.25 |  3:55.37 |    102100    |   119761   
        7  | 26:36.62 |  1:44.35 |    119762    |   127596   
        8  | 28:21.22 |  5:02.45 |    127597    |   150291   
        9  | 33:23.67 |  3:44.30 |    150292    |   167121   
       10  | 37:08.22 |  2:38.20 |    167122    |   178991   
       11  | 39:46.42 |  4:24.60 |    178992    |   198851   


Range status and errors

Selected range

     Filename C:\CDRip by Deminbek\Quiet Riot - Quiet Riot [Sony~Epic, 88875063652, EU].wav

     Peak level 99.9 %
     Extraction speed 6.5 X
     Range quality 99.9 %
     Test CRC B0690B1E
     Copy CRC B0690B1E
     Copy OK

No errors occurred

 
AccurateRip summary
 
Track  1  cannot be verified as accurate (confidence 7)  [BE584938], AccurateRip returned [48D650B7]  (AR v2)
Track  2  cannot be verified as accurate (confidence 7)  [D084D5B1], AccurateRip returned [E34C30A7]  (AR v2)
Track  3  cannot be verified as accurate (confidence 7)  [53B30C4D], AccurateRip returned [593CD430]  (AR v2)
Track  4  cannot be verified as accurate (confidence 7)  [D9A3F813], AccurateRip returned [535950E7]  (AR v2)
Track  5  cannot be verified as accurate (confidence 7)  [DBFE0469], AccurateRip returned [1A238D32]  (AR v2)
Track  6  cannot be verified as accurate (confidence 7)  [DDAEC2B6], AccurateRip returned [A24B51F7]  (AR v2)
Track  7  cannot be verified as accurate (confidence 7)  [0339EDD8], AccurateRip returned [70865566]  (AR v2)
Track  8  cannot be verified as accurate (confidence 7)  [BA935485], AccurateRip returned [8C556B55]  (AR v2)
Track  9  cannot be verified as accurate (confidence 7)  [04FA5358], AccurateRip returned [7F79FD52]  (AR v2)
Track 10  cannot be verified as accurate (confidence 7)  [EBD8805E], AccurateRip returned [55B40694]  (AR v2)
Track 11  cannot be verified as accurate (confidence 7)  [005057E5], AccurateRip returned [26297795]  (AR v2)
 
No tracks could be verified as accurate
You may have a different pressing from the one(s) in the database

End of status report

---- CUETools DB Plugin V2.1.6

[CTDB TOCID: .sqwhg9Fn2EbRY0dudHkGDPekI0-] found
Submit result: .sqwhg9Fn2EbRY0dudHkGDPekI0- has been confirmed
Track | CTDB Status
  1   | (10/10) Accurately ripped
  2   | (10/10) Accurately ripped
  3   | (10/10) Accurately ripped
  4   | (10/10) Accurately ripped
  5   | (10/10) Accurately ripped
  6   | (10/10) Accurately ripped
  7   | (10/10) Accurately ripped
  8   | (10/10) Accurately ripped
  9   | (10/10) Accurately ripped
 10   | (10/10) Accurately ripped
 11   | (10/10) Accurately ripped


==== Log checksum 90EC1962A85A428F2964093189F1C1CBBE7BD3CB612588B50062D4D31B8FE6EC ====



Create a new paste based on this one


Comments: