[ create a new paste ] login | about

Link: http://codepad.org/NzlOIaJx    [ raw code | fork ]

Plain Text, pasted on Mar 19:
Exact Audio Copy V1.3 from 2. September 2016

EAC extraction logfile from 16. March 2019, 16:00

Paul McCartney And Wings / Red Rose Speedway CD2 Double Album

Used drive  : PLEXTOR BD-R  PX-B950SA   Adapter: 1  ID: 1

Read mode               : Secure
Utilize accurate stream : Yes
Defeat audio cache      : Yes
Make use of C2 pointers : No

Read offset correction                      : 6
Overread into Lead-In and Lead-Out          : No
Fill up missing offset samples with silence : Yes
Delete leading and trailing silent blocks   : No
Null samples used in CRC calculations       : Yes
Used interface                              : Native Win32 interface for Win NT & 2000

Used output format : Internal WAV Routines
Sample format      : 44.100 Hz; 16 Bit; Stereo


TOC of the extracted CD

     Track |   Start  |  Length  | Start sector | End sector 
    ---------------------------------------------------------
        1  |  0:00.00 |  2:16.39 |         0    |    10238   
        2  |  2:16.39 |  4:18.44 |     10239    |    29632   
        3  |  6:35.08 |  3:10.27 |     29633    |    43909   
        4  |  9:45.35 |  3:50.52 |     43910    |    61211   
        5  | 13:36.12 |  4:09.13 |     61212    |    79899   
        6  | 17:45.25 |  1:54.47 |     79900    |    88496   
        7  | 19:39.72 |  3:38.08 |     88497    |   104854   
        8  | 23:18.05 |  3:57.58 |    104855    |   122687   
        9  | 27:15.63 |  5:01.56 |    122688    |   145318   
       10  | 32:17.44 |  4:34.05 |    145319    |   165873   
       11  | 36:51.49 |  4:00.21 |    165874    |   183894   
       12  | 40:51.70 |  4:25.14 |    183895    |   203783   
       13  | 45:17.09 | 11:19.67 |    203784    |   254775   
       14  | 56:37.01 |  3:45.57 |    254776    |   271707   
       15  | 60:22.58 |  3:24.01 |    271708    |   287008   
       16  | 63:46.59 |  2:30.14 |    287009    |   298272   
       17  | 66:16.73 |  3:21.32 |    298273    |   313379   
       18  | 69:38.30 |  6:23.71 |    313380    |   342175   


Range status and errors

Selected range

     Filename C:\Paul McCartney\1973 Red Rose Speedway (6-Disc Box Set Universal Music 2018)\CD2 Remastered Double Album\Paul McCartney And Wings - Red Rose Speedway CD2.wav

     Peak level 99.1 %
     Extraction speed 8.5 X
     Range quality 99.9 %
     Test CRC 2DABF83E
     Copy CRC 2DABF83E
     Copy OK

No errors occurred

 
AccurateRip summary
 
Track  1  accurately ripped (confidence 7)  [03CCFAA8]  (AR v2)
Track  2  accurately ripped (confidence 7)  [3937366E]  (AR v2)
Track  3  accurately ripped (confidence 7)  [F619C8C4]  (AR v2)
Track  4  accurately ripped (confidence 7)  [CE68324E]  (AR v2)
Track  5  accurately ripped (confidence 7)  [D260F3F2]  (AR v2)
Track  6  accurately ripped (confidence 7)  [A01DDE46]  (AR v2)
Track  7  accurately ripped (confidence 7)  [296482CF]  (AR v2)
Track  8  accurately ripped (confidence 7)  [EAF12D49]  (AR v2)
Track  9  accurately ripped (confidence 7)  [2F45C611]  (AR v2)
Track 10  accurately ripped (confidence 7)  [7745F6C0]  (AR v2)
Track 11  accurately ripped (confidence 7)  [F7A1EDB1]  (AR v2)
Track 12  accurately ripped (confidence 7)  [62B631BA]  (AR v2)
Track 13  accurately ripped (confidence 7)  [0D6B629E]  (AR v2)
Track 14  accurately ripped (confidence 7)  [0DBB1FDB]  (AR v2)
Track 15  accurately ripped (confidence 7)  [70454C16]  (AR v2)
Track 16  accurately ripped (confidence 7)  [59398304]  (AR v2)
Track 17  accurately ripped (confidence 7)  [53CBB93D]  (AR v2)
Track 18  accurately ripped (confidence 7)  [85E74AA7]  (AR v2)
 
All tracks accurately ripped

End of status report

---- CUETools DB Plugin V2.1.6

[CTDB TOCID: OTn5EYRQxJKiVvHUO9rZlHTMr04-] found
Submit result: OTn5EYRQxJKiVvHUO9rZlHTMr04- has been confirmed
Track | CTDB Status
  1   | (53/53) Accurately ripped
  2   | (53/53) Accurately ripped
  3   | (53/53) Accurately ripped
  4   | (53/53) Accurately ripped
  5   | (53/53) Accurately ripped
  6   | (53/53) Accurately ripped
  7   | (53/53) Accurately ripped
  8   | (53/53) Accurately ripped
  9   | (53/53) Accurately ripped
 10   | (53/53) Accurately ripped
 11   | (53/53) Accurately ripped
 12   | (53/53) Accurately ripped
 13   | (53/53) Accurately ripped
 14   | (53/53) Accurately ripped
 15   | (53/53) Accurately ripped
 16   | (53/53) Accurately ripped
 17   | (53/53) Accurately ripped
 18   | (52/53) Accurately ripped


==== Log checksum C35CF2B5131F5F651CE8587AEA9DFD7A4B6005CCF554DDCE3A3363DD0ED3E922 ====



Create a new paste based on this one


Comments: