[ create a new paste ] login | about

Link: http://codepad.org/O2ZAUmfw    [ raw code | fork ]

Plain Text, pasted on Mar 6:
foobar2000 1.4.1 / Dynamic Range Meter 1.1.1
log date: 2019-03-06 10:46:02

--------------------------------------------------------------------------------
Analyzed: Rebecca Pidgeon / Retrospective
--------------------------------------------------------------------------------

DR         Peak         RMS     Duration Track
--------------------------------------------------------------------------------
DR13      -0.88 dB   -17.47 dB      3:46 01-Spanish Harlem
DR12      -0.79 dB   -14.84 dB      3:24 02-Underground
DR13      -2.06 dB   -18.72 dB      4:15 03-Texas Rangers
DR11      -0.01 dB   -14.21 dB      3:58 04-24 Hours of Love
DR12      -1.17 dB   -16.52 dB      3:01 05-Fhear a Bhata
DR11      -0.73 dB   -15.00 dB      4:01 06-Seven Hours
DR9       -1.16 dB   -11.49 dB      4:33 07-Primitive Man
DR12      -0.78 dB   -17.68 dB      3:03 08-Kalerka
DR13      -3.15 dB   -19.84 dB      3:06 09-The Four Marys
DR12      -0.82 dB   -16.75 dB      6:34 10-Grandmother
DR13      -0.78 dB   -15.97 dB      2:41 11-MacDougall's Men
DR14      -1.03 dB   -17.50 dB      2:17 12-Hey How My Johnnie Lad
DR10      -1.61 dB   -15.56 dB      4:10 13-Auld Lang Syne/Bring it Home to Me
--------------------------------------------------------------------------------

Number of tracks:  13
Official DR value: DR12

Samplerate:        88200 Hz
Channels:          2
Bits per sample:   24
Bitrate:           2610 kbps
Codec:             FLAC
================================================================================




Create a new paste based on this one


Comments: