[ create a new paste ] login | about

Link: http://codepad.org/O6Gd3Exd    [ raw code | fork ]

Plain Text, pasted on Nov 4:
foobar2000 1.6 / Dynamic Range Meter 1.1.1
log date: 2020-11-04 05:14:12

--------------------------------------------------------------------------------
Analyzed: Grover Washington, Jr. / Prime Cuts - The Columbia Years: 1987-1999
--------------------------------------------------------------------------------

DR         Peak         RMS     Duration Track
--------------------------------------------------------------------------------
DR10      -1.68 dB   -13.45 dB      5:03 01-Take Five (Take Another Five)
DR10      -1.81 dB   -13.82 dB      5:40 02-Sacred Kind Of Love
DR9       -1.79 dB   -12.24 dB      5:15 03-Only For You (Siempre Para Ti Sere)
DR9       -1.71 dB   -13.92 dB      4:02 04-Please Send Me Someone To Love
DR11      -1.70 dB   -14.61 dB      4:25 05-Strawberry Moon
DR11      -0.01 dB   -14.42 dB      6:15 06-Summer Nights
DR10      -1.84 dB   -13.28 dB      3:33 07-Heat Index
DR11      -1.77 dB   -13.87 dB      5:10 08-Next Exit
DR10      -1.62 dB   -15.60 dB      8:29 09-Blues For DP
DR12      -1.69 dB   -15.15 dB      3:23 10-Soulful Strut (The Top Down Version)
DR8       -1.85 dB   -11.85 dB      4:26 11-The Love In His Infant Eyes
DR8       -1.76 dB   -11.45 dB      3:07 12-The Night Fantastic
DR9       -1.85 dB   -13.23 dB      5:14 13-Protect The Dream
--------------------------------------------------------------------------------

Number of tracks:  13
Official DR value: DR10

Samplerate:        88200 Hz
Channels:          2
Bits per sample:   24
Bitrate:           2731 kbps
Codec:             FLAC
================================================================================




Create a new paste based on this one


Comments: