[ create a new paste ] login | about

Link: http://codepad.org/O9o2P1h7    [ raw code | fork ]

Plain Text, pasted on May 24:
[CUETools log; Date: 5/23/2017 2:18:34 PM; Version: 2.1.5]
[CTDB TOCID: J5zO3aVapGjqQcS3wR94pWsIodo-] found.
Track | CTDB Status
  1   | (7/7) Accurately ripped
  2   | (7/7) Accurately ripped
  3   | (7/7) Accurately ripped
  4   | (7/7) Accurately ripped
  5   | (7/7) Accurately ripped
[AccurateRip ID: 00066eff-001dc7a2-2f070105] found.
Track   [  CRC   |   V2   ] Status
 01     [3c63722a|70d7c4b5] (08+09/17) Accurately ripped
 02     [ba2090e5|57004cae] (08+09/17) Accurately ripped
 03     [0d106eab|d2f51364] (08+09/17) Accurately ripped
 04     [22a219ac|36b2bf72] (08+09/17) Accurately ripped
 05     [70a61aaa|36a69a11] (08+09/17) Accurately ripped

Track Peak [ CRC32  ] [W/O NULL] [  LOG   ]
 --   99.2 [A0B8635B] [60463AC7]   CRC32   
 01   88.0 [A490DB3B] [9847E5E8]           
 02   99.2 [640B0922] [7F2804E6]           
 03   86.7 [6BEAD834] [5704C7B2]           
 04   92.5 [AA9F575F] [A5DFEFFF]           
 05   97.7 [2D233E78] [1347D71A]           



Create a new paste based on this one


Comments: