[ create a new paste ] login | about

Link: http://codepad.org/OCuYr4oe    [ raw code | fork ]

Plain Text, pasted on Jan 11:
foobar2000 1.5 / Dynamic Range Meter 1.1.1
log date: 2020-01-11 18:00:08

--------------------------------------------------------------------------------
Analyzed: Chet Baker / Chet
--------------------------------------------------------------------------------

DR         Peak         RMS     Duration Track
--------------------------------------------------------------------------------
DR12      -6.34 dB   -23.97 dB      6:50 01-Alone Together
DR13      -7.05 dB   -25.57 dB      3:35 02-How High The Moon
DR13      -8.89 dB   -26.11 dB      4:39 03-It Never Entered My Mind
DR11      -6.79 dB   -23.98 dB      5:15 04-'Tis Autumn
DR11      -6.47 dB   -23.20 dB      5:15 05-If You Could See Me Now
DR12      -9.48 dB   -27.82 dB      3:03 06-September Song
DR12      -7.10 dB   -24.71 dB      4:30 07-You'd Be So Nice To Come Home To
DR11      -4.94 dB   -20.51 dB      4:32 08-Time On My Hands (You In My Arms)
DR11      -6.03 dB   -22.28 dB      4:05 09-You and the Night and the Music
DR13      -4.73 dB   -23.14 dB      9:13 10-Early Morning Mood
--------------------------------------------------------------------------------

Number of tracks:  10
Official DR value: DR12

Samplerate:        2822400 Hz / PCM Samplerate: 44100 Hz
Channels:          2
Bits per sample:   1
Bitrate:           5645 kbps
Codec:             DSD64
================================================================================




Create a new paste based on this one


Comments: