[ create a new paste ] login | about

Link: http://codepad.org/OEVndlmt    [ raw code | fork ]

Plain Text, pasted on Mar 16:
Exact Audio Copy V1.0 beta 2 from 29. April 2011

EAC extraction logfile from 6. July 2012, 17:02

James Taylor / Mud Slide Slim And The Blue Horizon

Used drive  : HL-DT-STBD-RE  WH10LS30   Adapter: 2  ID: 1

Read mode               : Secure
Utilize accurate stream : Yes
Defeat audio cache      : Yes
Make use of C2 pointers : No

Read offset correction                      : 667
Overread into Lead-In and Lead-Out          : No
Fill up missing offset samples with silence : Yes
Delete leading and trailing silent blocks   : No
Null samples used in CRC calculations       : Yes
Used interface                              : Native Win32 interface for Win NT & 2000

Used output format              : User Defined Encoder
Selected bitrate                : 768 kBit/s
Quality                         : High
Add ID3 tag                     : No
Command line compressor         : C:\Exact Audio Copy\wavpack.exe
Additional command line options : -hm -w "Genre=%genre%" -w "Artist=%artist%" -w "Title=%title%" -w "Album=%albumtitle%" -w "Year=%year%" -w "Track=%tracknr%" -w "Comment=EAC1.0b2 WAVPack -hm" %source% %dest%


TOC of the extracted CD

     Track |   Start  |  Length  | Start sector | End sector 
    ---------------------------------------------------------
        1  |  0:00.00 |  2:43.53 |         0    |    12277   
        2  |  2:43.53 |  4:28.73 |     12278    |    32450   
        3  |  7:12.51 |  2:01.72 |     32451    |    41597   
        4  |  9:14.48 |  2:42.74 |     41598    |    53821   
        5  | 11:57.47 |  1:15.20 |     53822    |    59466   
        6  | 13:12.67 |  5:24.05 |     59467    |    83771   
        7  | 18:36.72 |  3:48.07 |     83772    |   100878   
        8  | 22:25.04 |  2:29.29 |    100879    |   112082   
        9  | 24:54.33 |  2:37.07 |    112083    |   123864   
       10  | 27:31.40 |  2:20.71 |    123865    |   134435   
       11  | 29:52.36 |  2:44.09 |    134436    |   146744   
       12  | 32:36.45 |  3:53.17 |    146745    |   164236   
       13  | 36:29.62 |  0:57.20 |    164237    |   168531   


Range status and errors

Selected range

     Filename C:\Eac Rips\jt\James Taylor - Mud Slide Slim And The Blue Horizon [AFZ 128].wav

     Peak level 97.8 %
     Extraction speed 0.5 X
     Range quality 100.0 %
     Test CRC E50695B5
     Copy CRC E50695B5
     Copy OK

No errors occurred

 
AccurateRip summary
 
Track  1  not present in database
Track  2  not present in database
Track  3  not present in database
Track  4  not present in database
Track  5  not present in database
Track  6  not present in database
Track  7  not present in database
Track  8  not present in database
Track  9  not present in database
Track 10  not present in database
Track 11  not present in database
Track 12  not present in database
Track 13  not present in database
 
None of the tracks are present in the AccurateRip database

End of status report



Create a new paste based on this one


Comments: