[ create a new paste ] login | about

Link: http://codepad.org/OFwjwqJy    [ raw code | fork ]

Plain Text, pasted on May 24:
Exact Audio Copy V1.3 from 2. September 2016

EAC extraction logfile from 19. May 2019, 8:57

Van Der Graaf Generator / The Aerosol Grey Machine CD2

Used drive  : PLEXTOR BD-R  PX-B950SA   Adapter: 1  ID: 1

Read mode               : Secure
Utilize accurate stream : Yes
Defeat audio cache      : Yes
Make use of C2 pointers : No

Read offset correction                      : 6
Overread into Lead-In and Lead-Out          : No
Fill up missing offset samples with silence : Yes
Delete leading and trailing silent blocks   : No
Null samples used in CRC calculations       : Yes
Used interface                              : Native Win32 interface for Win NT & 2000

Used output format : Internal WAV Routines
Sample format      : 44.100 Hz; 16 Bit; Stereo


TOC of the extracted CD

     Track |   Start  |  Length  | Start sector | End sector 
    ---------------------------------------------------------
        1  |  0:00.00 |  3:33.34 |         0    |    16008   
        2  |  3:33.34 |  4:04.72 |     16009    |    34380   
        3  |  7:38.31 |  3:31.22 |     34381    |    50227   
        4  | 11:09.53 |  4:44.16 |     50228    |    71543   
        5  | 15:53.69 |  4:11.68 |     71544    |    90436   
        6  | 20:05.62 |  5:48.53 |     90437    |   116589   
        7  | 25:54.40 |  2:46.17 |    116590    |   129056   
        8  | 28:40.57 |  4:09.47 |    129057    |   147778   


Range status and errors

Selected range

     Filename C:\Van Der Graaf Generator\1969 The Aerosol Grey Machine (4-Disc Box Set Esoteric Records 2019)\CD2\Van Der Graaf Generator - The Aerosol Grey Machine CD2.wav

     Peak level 98.8 %
     Extraction speed 2.9 X
     Range quality 100.0 %
     Test CRC 39567CDB
     Copy CRC 39567CDB
     Copy OK

No errors occurred

 
AccurateRip summary
 
Track  1  accurately ripped (confidence 1)  [C2DC846E]  (AR v2)
Track  2  accurately ripped (confidence 1)  [6DB03CA6]  (AR v2)
Track  3  accurately ripped (confidence 1)  [12347AF4]  (AR v2)
Track  4  accurately ripped (confidence 1)  [94C2B280]  (AR v2)
Track  5  accurately ripped (confidence 1)  [EE5665F4]  (AR v2)
Track  6  accurately ripped (confidence 1)  [16B9E86C]  (AR v2)
Track  7  accurately ripped (confidence 1)  [C43DE739]  (AR v2)
Track  8  accurately ripped (confidence 1)  [F671D61E]  (AR v2)
 
All tracks accurately ripped

End of status report

---- CUETools DB Plugin V2.1.6

[CTDB TOCID: e0rpRRG8YIHMta4mtKLrIVtUXyM-] found
Submit result: e0rpRRG8YIHMta4mtKLrIVtUXyM- has been confirmed
Track | CTDB Status
  1   | (8/8) Accurately ripped
  2   | (8/8) Accurately ripped
  3   | (8/8) Accurately ripped
  4   | (8/8) Accurately ripped
  5   | (8/8) Accurately ripped
  6   | (8/8) Accurately ripped
  7   | (8/8) Accurately ripped
  8   | (8/8) Accurately ripped


==== Log checksum 53DC3CE3264E07C46BE9B3024D97F43A16D0045E6224E82FCD2505969E069B96 ====



Create a new paste based on this one


Comments: