[ create a new paste ] login | about

Link: http://codepad.org/OHuX4emB    [ raw code | fork ]

Plain Text, pasted on Nov 28:
[CUETools log; Date: 11/28/2016 6:48:15 AM; Version: 2.1.5]
[CTDB TOCID: NGmwf7kgAymTYTvOLLlCkE5AZZo-] found.
Track | CTDB Status
  1   | (6/6) Accurately ripped
  2   | (6/6) Accurately ripped
  3   | (6/6) Accurately ripped
  4   | (6/6) Accurately ripped
  5   | (6/6) Accurately ripped
  6   | (6/6) Accurately ripped
  7   | (6/6) Accurately ripped
  8   | (6/6) Accurately ripped
  9   | (6/6) Accurately ripped
 10   | (6/6) Accurately ripped
 11   | (6/6) Accurately ripped
[AccurateRip ID: 00112919-0094f49a-6d09ec0b] found.
Track   [  CRC   |   V2   ] Status
 01     [78628cb8|79391876] (2+4/6) Accurately ripped
 02     [7e29ae21|4e18d12a] (2+4/6) Accurately ripped
 03     [249536b2|c883f934] (2+4/6) Accurately ripped
 04     [16bd4f9d|9e03287c] (2+5/7) Accurately ripped
 05     [8ed777e1|3038be7a] (2+5/7) Accurately ripped
 06     [f660b905|ccd4101b] (2+5/7) Accurately ripped
 07     [7a19c53d|1e3354a9] (2+5/7) Accurately ripped
 08     [09609e30|7987f9c2] (2+4/6) Accurately ripped
 09     [566bb4dc|a1c622fc] (2+4/6) Accurately ripped
 10     [74e30b46|fb492256] (2+4/6) Accurately ripped
 11     [71493be9|8455b2c5] (2+4/6) Accurately ripped

Track Peak [ CRC32  ] [W/O NULL] [  LOG   ]
 --  100.0 [04810C2B] [83374643]           
 01  100.0 [4ED1C1C3] [3E84105B]   CRC32   
 02   84.9 [F37E33BA] [25695956]   CRC32   
 03   73.8 [A47FF816] [5A4B1386]   CRC32   
 04  100.0 [C3B00546] [075406EF]   CRC32   
 05   96.8 [197C0467] [9F6B97D4]   CRC32   
 06   92.6 [EEF0033B] [76B8273C]   CRC32   
 07  100.0 [F59AA73F] [88F22442]   CRC32   
 08   99.2 [5C2B6927] [9913D7A7]   CRC32   
 09   95.9 [605445B9] [87F224D4]   CRC32   
 10  100.0 [56AA4B34] [DDEBDCE7]   CRC32   
 11  100.0 [526B7A74] [7164FFD4]   CRC32   



Create a new paste based on this one


Comments: